<?xml version="1.0" standalone="no"?>
<!DOCTYPE svg PUBLIC "-//W3C//DTD SVG 1.1//EN" "http://www.w3.org/Graphics/SVG/1.1/DTD/svg11.dtd" >
<svg>
<metadata>
Created by FontForge 20120731 at Fri Aug  5 12:42:40 2016
 By www
Digitized data copyright Monotype Typography, Ltd 1991-1995. All rights reserved. Monotype ScriptTM is a trademark of Monotype Typography, Ltd which may be registered in certain jurisdictions.
</metadata>
<defs>
<font id="ScriptMTBold" horiz-adv-x="1067" >
  <font-face 
    font-family="Script MT Bold"
    font-weight="700"
    font-stretch="normal"
    units-per-em="2048"
    panose-1="3 4 6 2 4 6 7 8 9 4"
    ascent="1638"
    descent="-410"
    x-height="848"
    cap-height="1425"
    bbox="-395 -516 2202.4 1950"
    underline-thickness="102"
    underline-position="-103"
    unicode-range="U+0020-F003"
  />
<missing-glyph horiz-adv-x="2048" 
d="M256 0v1536h1536v-1536h-1536zM384 128h1280v1280h-1280v-1280z" />
    <glyph glyph-name=".notdef" horiz-adv-x="2048" 
d="M256 0v1536h1536v-1536h-1536zM384 128h1280v1280h-1280v-1280z" />
    <glyph glyph-name=".null" horiz-adv-x="0" 
 />
    <glyph glyph-name="nonmarkingreturn" horiz-adv-x="512" 
 />
    <glyph glyph-name="space" unicode=" " horiz-adv-x="512" 
 />
    <glyph glyph-name="exclam" unicode="!" horiz-adv-x="662" 
d="M311 385q-59 94 -59 201q0 88 54.5 227t70.5 205t16 143q0 62 -9 106t-9 50q0 18 102.5 61t118.5 43q19 0 36 -59t17 -133q0 -101 -36 -204.5t-122.5 -236.5t-115.5 -197t-29 -120q0 -4 4 -31t4 -32q0 -9 -43 -23zM408 213q6 0 6 -10t-31 -86.5t-65 -108t-95 -31.5
q-58 0 -117 28.5t-59 39.5q0 3 10 21q52 70 80 184q3 24 10 24q12 0 27 -18q67 -63 141 -63q32 0 60.5 10t32.5 10z" />
    <glyph glyph-name="quotedbl" unicode="&#x22;" horiz-adv-x="901" 
d="M805 1417q3 -146 -27.5 -245t-136.5 -257l-63 -10q60 166 60 288q0 78 -22 165zM467 1397q3 -147 -27.5 -245.5t-136.5 -256.5l-63 -10q60 166 60 288q0 78 -21 164z" />
    <glyph glyph-name="numbersign" unicode="#" horiz-adv-x="1368" 
d="M1282 395h-317l-84 -395h-146l86 395h-403l-82 -395h-143l81 395h-188v144h219l72 350h-291v143h320l86 398h143l-86 -398h401l84 398h144l-86 -398h190v-143h-217l-74 -350h291v-144zM922 889h-402l-71 -348h401z" />
    <glyph glyph-name="dollar" unicode="$" 
d="M780 1376q115 -25 179.5 -65.5t64.5 -81.5q0 -50 -98 -205q-37 0 -46.5 13t-9.5 32q0 7 5.5 51.5t5.5 53.5q0 120 -117 143l-125 -463q119 -126 176 -221.5t57 -202.5q0 -154 -124.5 -292t-350.5 -161l-53 -190h-78l53 197q-126 24 -200 95t-74 89t44 112t54 108.5
t25 14.5q35 0 35 -41l-6 -94q0 -93 34 -141.5t109 -69.5l149 547q-115 120 -168 212.5t-53 193.5q0 148 115.5 260t318.5 112l13 50h80zM688 1325q-96 -3 -147.5 -62.5t-51.5 -123.5q0 -101 91 -205zM420 53q105 11 170 81.5t65 162.5q0 102 -106 225z" />
    <glyph glyph-name="percent" unicode="%" horiz-adv-x="1559" 
d="M594 1223q59 -11 117 -11q85 0 184 26t235 84q245 105 277 105q33 0 33 -36q0 -13 -6 -23l-1174 -1868h-170l1108 1768q-308 -129 -487 -129q-63 0 -129 10q-34 -183 -116.5 -272t-191.5 -89q-89 0 -147.5 64t-58.5 162q0 81 48 190.5t124 168.5t118 59q27 0 27 -29
q0 -17 -37 -74q-112 -170 -112 -323q0 -62 22.5 -100t58.5 -38q44 0 108.5 74.5t88.5 231.5q-70 47 -70 124q0 53 22.5 93.5t49.5 40.5q78 0 78 -209zM1513 -76q3 -46 -5 -55.5t-35 -9.5q-32 -174 -118 -267.5t-186 -93.5q-88 0 -146 63t-58 158q0 106 53 216t126 159
t107 49q29 0 29 -24q0 -13 -31 -64q-119 -185 -119 -352q0 -58 20.5 -91.5t55.5 -33.5q46 0 110 75t93 232q-37 22 -52.5 47t-15.5 74q0 60 20 98.5t50 38.5q74 0 74 -209z" />
    <glyph glyph-name="ampersand" unicode="&#x26;" horiz-adv-x="1386" 
d="M598 807v84q0 223 117 370.5t291 147.5q96 0 165.5 -43t69.5 -100q0 -33 -65 -82t-80 -49q-31 0 -37.5 58.5t-31.5 95t-69 36.5q-54 0 -85 -70t-31 -194q0 -198 64 -450t127 -359t138 -107q71 0 127 70q21 21 29 21q13 0 28 -16t15 -25q0 -30 -101 -124t-220 -94
q-90 0 -160.5 54t-136.5 168q-124 -114 -219.5 -168t-204.5 -54q-119 0 -195 75.5t-76 193.5q0 308 541 561zM719 272q-79 184 -119 455q-146 -68 -214.5 -145t-68.5 -191q0 -103 54.5 -178.5t126.5 -75.5q42 0 88.5 27t132.5 108z" />
    <glyph glyph-name="quotesingle" unicode="'" horiz-adv-x="492" 
d="M467 1417q3 -146 -27.5 -245t-136.5 -257l-63 -10q60 166 60 288q0 78 -21 165z" />
    <glyph glyph-name="parenleft" unicode="(" horiz-adv-x="981" 
d="M950 1448q-344 -319 -475 -679.5t-131 -674.5q0 -165 37.5 -297.5t120.5 -273.5h-103q-161 212 -225.5 389t-64.5 364q0 337 175.5 639t555.5 533h110z" />
    <glyph glyph-name="parenright" unicode=")" horiz-adv-x="981" 
d="M604 1448q151 -193 222 -372t71 -384q0 -323 -171 -627.5t-562 -541.5h-113q171 165 258.5 278.5t172 293.5t130 380.5t45.5 396.5q0 180 -36 307.5t-117 268.5h100z" />
    <glyph glyph-name="asterisk" unicode="*" horiz-adv-x="981" 
d="M965 739q-189 14 -398 195q4 -143 72 -365l-203 -73q-10 59 -10 112q0 78 15.5 137t56.5 183q-133 -41 -318 -178l-139 165q141 82 330 82q38 0 108 -6q-142 169 -276 252l119 182q140 -107 208 -395q114 187 152 340l209 -55q-66 -176 -303 -314q187 -56 364 -49z" />
    <glyph glyph-name="plus" unicode="+" horiz-adv-x="1366" 
d="M1229 469h-469v-469h-158v469h-469v158h469v469h158v-469h469v-158z" />
    <glyph glyph-name="comma" unicode="," horiz-adv-x="492" 
d="M297 291q84 -51 123 -105.5t39 -130.5q0 -123 -100 -226t-293 -173l-21 61q111 60 168 110.5t57 119.5q0 87 -100 127q-35 12 -35 24q0 10 42 48t120 145z" />
    <glyph glyph-name="hyphen" unicode="-" horiz-adv-x="670" 
d="M626 537l-47 -109q-35 -82 -57 -99.5t-86 -17.5l-221 8q-46 0 -80 -26q-15 -10 -25 -10q-30 0 -20 22l55 129q21 50 44 65t102 16h165q90 0 114 20t34 20q30 0 22 -18z" />
    <glyph glyph-name="period" unicode="." horiz-adv-x="406" 
d="M395 209q-44 -143 -80.5 -187.5t-109.5 -44.5q-90 0 -174 64q53 82 100 235q64 -54 94 -68.5t72 -14.5q36 0 98 16z" />
    <glyph glyph-name="slash" unicode="/" horiz-adv-x="811" 
d="M756 1430l-447 -1883h-231l448 1883h230z" />
    <glyph glyph-name="zero" unicode="0" 
d="M1012 1024q7 -6 30 -15t23 -30q0 -30 -10.5 -40.5t-32 -7.5t-25.5 3q-198 -957 -635 -957q-134 0 -215 109t-81 291q0 271 132 535.5t299 386.5t232 122q16 0 16 -35q0 -26 -26 -51q-156 -153 -258.5 -446.5t-102.5 -521.5q0 -112 36.5 -176t99.5 -64q113 0 225.5 198.5
t206.5 624.5q-150 44 -150 189q0 85 47 184.5t109 99.5q90 0 90 -217q0 -94 -10 -182z" />
    <glyph glyph-name="one" unicode="1" horiz-adv-x="811" 
d="M436 1225q-159 -133 -225 -250q-25 -41 -35 -41q-20 0 -36.5 11.5t-16.5 25.5q0 17 52 92.5t174.5 189.5t181.5 142t153 28q49 0 49 -25q0 -2 -2 -30v-2l-85 -337l-109 -418q-63 -239 -114.5 -408.5t-71 -187.5t-86.5 -29t-152 -11q-52 0 -52 25q0 23 17 63
q162 439 358 1162z" />
    <glyph glyph-name="two" unicode="2" horiz-adv-x="1069" 
d="M195 201q113 35 219 35q20 0 142.5 -10.5t145.5 -10.5q57 0 93.5 20.5t58.5 80.5q7 20 14 20q18 0 39 -9.5t21 -15.5q0 -33 -53.5 -145.5t-109.5 -150.5t-169 -38q-25 0 -175.5 12.5t-178.5 12.5q-98 0 -145 -12.5t-52 -12.5q-14 0 -14 19q0 60 22.5 118t101 153.5
t232.5 238.5l113 104q134 126 188.5 241.5t54.5 235.5q0 102 -52.5 164t-137.5 62q-81 0 -141 -58.5t-60 -138.5q0 -67 66 -119q35 -26 35 -47q0 -28 -76 -65t-123 -37q-38 0 -66 36.5t-28 88.5q0 167 160.5 308.5t353.5 141.5q159 0 261.5 -96.5t102.5 -245.5
q0 -120 -67.5 -222t-161.5 -178.5t-248 -181t-235.5 -168t-130.5 -130.5z" />
    <glyph glyph-name="three" unicode="3" 
d="M1049 1114q0 -249 -357 -356q281 -100 281 -346q0 -189 -159 -313t-404 -124q-183 0 -281 76t-98 215q0 50 25.5 74.5t102.5 50t99 25.5q14 0 23.5 -13.5t9.5 -31.5q0 -15 -20.5 -62t-20.5 -94q0 -68 52.5 -116t127.5 -48q119 0 188.5 115.5t69.5 261.5q0 105 -47 174.5
t-119 65.5l-71 -4q-35 -3 -35 41q0 51 14.5 66t46.5 15q83 0 132.5 12.5t92 61t68 122.5t25.5 146q0 90 -55 147.5t-140 57.5q-78 0 -135 -47t-57 -110q0 -24 15 -58t15 -53q0 -26 -70 -63t-100 -37q-23 0 -40 28t-17 68q0 127 133.5 244.5t335.5 117.5q164 0 266.5 -86
t102.5 -223z" />
    <glyph glyph-name="four" unicode="4" 
d="M786 565q118 5 195 23l16 4q31 0 31 -21q0 -15 -22 -86.5t-34.5 -79.5t-63.5 -13t-169 -5l-53 -192q-22 -82 -40 -127t-41 -58t-90.5 -23t-145.5 -10q-47 0 -47 25q0 21 14 59l121 328l-353 12q-48 2 -59.5 6t-11.5 21q0 64 21 107q48 101 144 240q140 201 326.5 389
t270.5 233q52 28 143 28q57 0 57 -30q0 -13 -47 -211l-30 -129q-25 -105 -105 -393zM711 1231q-97 -67 -270.5 -270.5t-297.5 -419.5q233 -3 361 4q85 249 207 686z" />
    <glyph glyph-name="five" unicode="5" 
d="M1026 1423q-29 -122 -73.5 -181t-102 -76t-152.5 -17q-97 0 -229 16l-84 -309q89 23 166 23q179 0 298.5 -116t119.5 -290q0 -210 -158 -353t-391 -143q-179 0 -283 86t-104 187q0 32 9 51.5t36.5 34t87.5 41t82 26.5q24 0 24 -24q0 -10 -11 -70t-11 -71
q0 -80 48.5 -132.5t123.5 -52.5q107 0 183.5 123.5t76.5 302.5q0 126 -68.5 197.5t-189.5 71.5q-55 0 -85 -7.5t-40 -7.5q-18 0 -18 19q0 7 12 51l156 561q16 59 49 59q7 0 34 -6q96 -22 211 -22q133 0 283 28z" />
    <glyph glyph-name="six" unicode="6" 
d="M737 850q105 0 184.5 -96.5t79.5 -227.5q0 -213 -170 -381t-387 -168q-166 0 -269 127t-103 334q0 264 132.5 490t327.5 360.5t289 134.5q2 0 26.5 -14.5t24.5 -24.5q0 -9 -24 -24q-165 -92 -285.5 -292.5t-180.5 -446.5t-60 -369q0 -90 39.5 -145.5t101.5 -55.5
q110 0 183 174.5t73 323.5q0 67 -35 116.5t-78 49.5q-26 0 -51.5 -9.5t-30.5 -9.5q-7 0 -14.5 9t-7.5 20t82.5 68t152.5 57z" />
    <glyph glyph-name="seven" unicode="7" horiz-adv-x="1081" 
d="M225 1024q-26 -12 -49 -12q-22 0 -22 24q0 13 14 60l57 186q14 42 30.5 71.5t37.5 40.5t83.5 20t123.5 9q68 0 178.5 -18.5t171.5 -18.5q86 0 126 18.5t46 18.5q7 0 14.5 -8t7.5 -16q0 -51 -145 -332q-128 -249 -231.5 -507.5t-139.5 -387t-55 -150t-93.5 -34.5
t-158.5 -13q-47 0 -47 33q0 49 76.5 237.5t372.5 555.5q174 219 239 356q-57 -8 -100 -8q-25 0 -172.5 14.5t-175.5 14.5q-86 0 -126 -36t-63 -118z" />
    <glyph glyph-name="eight" unicode="8" horiz-adv-x="1071" 
d="M967 1124h61q12 0 12 -14t-12 -53q-16 -8 -45 -8q-37 0 -55 6q-67 -123 -242 -244q186 -199 186 -371q0 -181 -146.5 -323t-336.5 -142q-151 0 -248.5 83.5t-97.5 211.5q0 116 78.5 221.5t267.5 223.5q-133 151 -133 307q0 150 102.5 261t282.5 142q43 -31 43 -34
q0 -12 -33 -25q-78 -37 -122 -98t-44 -131q0 -67 35.5 -125t110.5 -142q158 92 229 222q-76 53 -76 149q0 74 40.5 128t95.5 54q40 0 64 -33t24 -90q0 -88 -41 -176zM643 291q0 89 -48.5 175.5t-152.5 190.5q-321 -185 -321 -383q0 -95 74.5 -159t187.5 -64t186.5 68
t73.5 172z" />
    <glyph glyph-name="nine" unicode="9" 
d="M616 1423q167 0 270 -126.5t103 -333.5q0 -265 -132.5 -490.5t-327.5 -360.5t-289 -135q-2 0 -27 15t-25 24q0 10 25 25q165 92 285.5 292.5t180.5 446.5t60 369q0 89 -39.5 145t-101.5 56q-110 0 -183 -175t-73 -323q0 -67 35 -116.5t78 -49.5q26 0 51.5 9.5t30.5 9.5
q7 0 14.5 -9.5t7.5 -19.5q0 -11 -82.5 -68t-152.5 -57q-105 0 -185 96.5t-80 226.5q0 214 170.5 381.5t386.5 167.5z" />
    <glyph glyph-name="colon" unicode=":" horiz-adv-x="575" 
d="M561 788q-32 -122 -72.5 -178.5t-123.5 -56.5q-76 0 -177 63q49 52 103 238q65 -54 96.5 -71t73.5 -17q31 0 63 11t37 11zM403 213q-32 -122 -71.5 -179t-120.5 -57q-73 0 -174 64q57 85 100 235q66 -53 98 -68t68 -15q16 0 100 20z" />
    <glyph glyph-name="semicolon" unicode=";" horiz-adv-x="662" 
d="M651 788q-30 -122 -74 -179.5t-120 -57.5q-43 0 -74.5 13t-101.5 57q65 80 106 231q44 -44 79 -64t85 -20q26 0 100 20zM285 293q159 -97 159 -236q0 -123 -100 -227t-293 -174l-20 63q111 60 168 110.5t57 119.5q0 84 -100 127q-33 12 -33 22q0 14 39 49.5t123 145.5z
" />
    <glyph glyph-name="less" unicode="&#x3c;" horiz-adv-x="1366" 
d="M1231 16l-1096 459v143l1096 459v-170l-883 -360l883 -361v-170z" />
    <glyph glyph-name="equal" unicode="=" horiz-adv-x="1366" 
d="M1231 705h-1096v157h1096v-157zM1231 231h-1096v158h1096v-158z" />
    <glyph glyph-name="greater" unicode="&#x3e;" horiz-adv-x="1366" 
d="M1229 477l-1094 -459v170l883 359l-883 360v172l1094 -461v-141z" />
    <glyph glyph-name="question" unicode="?" horiz-adv-x="897" 
d="M301 383q-47 80 -47 139q0 51 27 91t137.5 125.5t153 171.5t42.5 175q0 100 -50 160t-134 60q-78 0 -131 -51.5t-53 -127.5q0 -38 17.5 -73.5t57 -35t39.5 -22.5q0 -26 -72 -71t-98 -45q-33 0 -62.5 51.5t-29.5 111.5q0 145 141 263t316 118q139 0 228 -90t89 -231
t-91 -258t-298 -246q-92 -58 -119.5 -89.5t-27.5 -76.5q0 -6 4 -35zM432 215q-30 -123 -72 -180.5t-129 -57.5q-77 0 -170 68q47 56 109 234q41 -44 76.5 -63t91.5 -19q25 0 94 18z" />
    <glyph glyph-name="at" unicode="@" horiz-adv-x="1704" 
d="M1704 160q-116 -286 -336.5 -436t-515.5 -150q-370 0 -611 239.5t-241 606.5q0 396 264.5 656.5t667.5 260.5q310 0 501 -180t191 -471q0 -290 -167.5 -488t-409.5 -198q-91 0 -143 46t-52 126q0 52 22 133q-100 -171 -177 -238t-156 -67q-74 0 -118 58.5t-44 158.5
q0 170 80.5 335.5t202.5 270.5t215 105q117 0 139 -150l33 115l233 8l-176 -606q-29 -104 -29 -148q0 -32 23.5 -54.5t56.5 -22.5q74 0 177 81.5t170 218.5t67 298q0 268 -173 438t-446 170q-379 0 -615.5 -262.5t-236.5 -626.5q0 -332 213 -546t543 -214q247 0 467.5 135.5
t321.5 397.5h59zM684 176q70 0 178.5 189.5t108.5 363.5q0 62 -20 95.5t-48 33.5q-81 0 -177.5 -226t-96.5 -364q0 -40 15.5 -66t39.5 -26z" />
    <glyph glyph-name="A" unicode="A" horiz-adv-x="1386" 
d="M1409 221q-230 -246 -422 -246q-106 0 -168 75t-69 214q-121 -147 -214.5 -218t-199.5 -71q-136 0 -218.5 117.5t-82.5 313.5q0 234 108 482.5t320 392.5t514 144q226 0 409 -61v-66q-149 -174 -249.5 -487t-100.5 -477q0 -80 32.5 -124t90.5 -44q104 0 250 170v-115z
M1118 1298q-92 50 -198 50q-167 0 -301 -139.5t-211.5 -369.5t-77.5 -399q0 -113 43.5 -183.5t111.5 -70.5q118 0 271 215q63 564 362 897z" />
    <glyph glyph-name="B" unicode="B" horiz-adv-x="1556" 
d="M1079 780q107 0 156 84.5t49 184.5q0 138 -91.5 220.5t-246.5 82.5q-208 0 -374 -120.5t-166 -266.5q0 -87 94 -127q24 -10 24 -19v-31q0 -22 -79.5 -55t-104.5 -33q-39 0 -79 63.5t-40 131.5q0 119 97.5 249t275 209t407.5 79q246 0 398.5 -103t152.5 -264
q0 -240 -340 -328q267 -83 267 -327q0 -178 -133.5 -305.5t-319.5 -127.5q-82 0 -137 33t-55 80q0 31 35 84t65 53q41 0 49 -96q6 -76 47 -76q67 0 118.5 149t51.5 300q0 183 -131 203zM1112 1167q-58 -52 -87.5 -118.5t-52 -260.5t-56.5 -325.5t-118.5 -245t-214 -178
t-278.5 -64.5q-133 0 -203.5 56t-70.5 159q0 37 6 62q47 43 112 75.5t87 32.5q36 0 36 -55q0 -9 -8 -62.5t-8 -64.5q0 -123 106 -123q107 0 186 139.5t113.5 416.5t96 382.5t155.5 162t146 56.5q26 0 53 -45z" />
    <glyph glyph-name="C" unicode="C" horiz-adv-x="1153" 
d="M1176 221q-237 -246 -572 -246q-240 0 -393.5 150.5t-153.5 386.5q0 235 111 447t290.5 339t352.5 127q145 0 236.5 -87t91.5 -226q0 -181 -110.5 -313.5t-258.5 -132.5q-78 0 -128 40t-50 103q0 54 43 100q32 -59 88 -59q80 0 148.5 100t68.5 219q0 83 -38.5 132
t-102.5 49q-93 0 -198.5 -116t-176 -298t-70.5 -346q0 -209 118.5 -343t301.5 -134q116 0 209 54t193 169v-115z" />
    <glyph glyph-name="D" unicode="D" horiz-adv-x="1556" 
d="M567 180l128 -54q62 -27 101.5 -36.5t75.5 -9.5q166 0 266.5 217.5t100.5 466.5q0 263 -127.5 423.5t-333.5 160.5q-165 0 -309.5 -118.5t-144.5 -250.5q0 -99 84 -135q36 -17 36 -45q0 -29 -78.5 -63t-95.5 -34q-51 0 -90 59.5t-39 131.5q0 191 199.5 362.5t519.5 171.5
q306 0 488 -168.5t182 -451.5q0 -216 -112.5 -410t-303 -308t-403.5 -114q-179 0 -334 78q-125 -78 -217 -78q-52 0 -87.5 30t-35.5 73q0 70 73 118t183 48q78 0 149 -25q63 52 86 125t46 258t72 291t144.5 177.5t192.5 82.5l39 -53q-62 -63 -92.5 -128t-55 -279.5t-94 -322
t-213.5 -190.5z" />
    <glyph glyph-name="E" unicode="E" 
d="M1090 221q-129 -126 -259 -185t-294 -59q-217 0 -347.5 105t-130.5 276q0 149 107 261.5t328 156.5q-213 81 -213 273q0 153 147 264.5t354 111.5q149 0 216 -58.5t67 -106.5q0 -30 -50 -93t-73 -63q-27 0 -39 76q-28 170 -137 170q-85 0 -154 -95t-69 -215
q0 -192 188 -192q31 0 42 -3.5t11 -17.5q0 -38 -15 -83.5t-38 -45.5q-7 0 -50 5.5t-75 5.5q-106 0 -182 -87t-76 -210q0 -133 89 -220.5t225 -87.5q112 0 224 60t204 172v-115z" />
    <glyph glyph-name="F" unicode="F" horiz-adv-x="1237" 
d="M1239 1444q-24 -135 -75 -195.5t-193 -60.5l-312 8q-138 0 -223.5 -53.5t-85.5 -149.5q0 -90 109 -141q37 -17 37 -31q0 -28 -40.5 -69.5t-93.5 -61.5q-135 37 -135 174q0 96 76 240.5t204 236t284 91.5q13 0 142.5 -10.5t156.5 -10.5q81 0 98 33h51zM1196 834l-18 -175
q-16 -22 -66 -42.5t-176 -53.5q-24 -262 -175 -422.5t-380 -160.5q-161 0 -250.5 70t-89.5 138q0 32 69.5 94t102.5 62q25 0 31 -18.5t6.5 -93t38 -125t104.5 -50.5q202 0 258 418q-92 -20 -209 -86l43 135q85 73 181 107q15 161 54.5 256t129.5 186q119 15 162 17
q-34 -66 -47 -128t-17 -227q131 43 248 99z" />
    <glyph glyph-name="G" unicode="G" horiz-adv-x="1300" 
d="M1323 221q-68 -79 -260 -178q-40 -266 -177 -411.5t-308 -145.5q-82 0 -128.5 38t-46.5 105q0 186 361 361q38 135 74 243q-63 -91 -183 -161t-223 -70q-168 0 -279.5 145.5t-111.5 368.5q0 235 126 445.5t331 337t397 126.5q172 0 279.5 -98t107.5 -254
q0 -168 -121 -296t-278 -128q-92 0 -152.5 45t-60.5 111q0 40 23.5 71t54.5 31q30 0 30 -35q0 -31 23 -48t53 -17q80 0 153.5 109.5t73.5 234.5q0 88 -57 143.5t-147 55.5q-135 0 -261.5 -120t-206 -315.5t-79.5 -371.5q0 -162 70 -257.5t186 -95.5q196 0 375 277l188 27
q35 5 35 -17q0 -10 -27 -86t-74 -254q155 90 240 199v-115zM741 -111q-260 -130 -260 -256q0 -67 64 -67q126 0 196 323z" />
    <glyph glyph-name="H" unicode="H" horiz-adv-x="1812" 
d="M1835 221q-122 -127 -221.5 -186.5t-204.5 -59.5q-118 0 -198.5 104t-80.5 304q0 83 21 217q-150 -12 -184 -14q-63 -330 -221.5 -470.5t-358.5 -140.5q-148 0 -244 68.5t-96 132.5q0 47 71.5 107.5t98.5 60.5q39 0 39 -84q0 -207 139 -207q102 0 169.5 114t107.5 378
q-120 -17 -238 -117q-8 11 -14 86q105 116 278 162q35 162 88 264t269 315q-104 -41 -170 -41q-43 0 -107.5 23t-103.5 23q-85 0 -139 -61.5t-54 -125.5t68 -117q31 -19 31 -36q0 -30 -40 -74.5t-75 -44.5q-39 0 -72 55.5t-33 122.5q0 148 145 297t288 149q31 0 120 -25.5
t121 -25.5q64 0 125 56q76 -40 76 -50q0 -14 -60.5 -74.5t-99.5 -172.5t-82 -418q115 5 201 18q46 155 99 261t121.5 213.5t105 131.5t155 55t119.5 31q12 0 12 -6q0 -15 -45 -77.5t-129.5 -225t-142.5 -346.5q108 18 221 96q13 -6 16 -17.5t3 -57.5q-86 -104 -277 -148
q-41 -195 -41 -276q0 -98 43 -155.5t115 -57.5q58 0 116.5 37.5t149.5 144.5v-115z" />
    <glyph glyph-name="I" unicode="I" horiz-adv-x="1237" 
d="M1061 1257q-98 -40 -178 -40q-49 0 -112 23.5t-95 23.5q-75 0 -132 -57t-57 -132q0 -67 64 -110q33 -25 33 -43q0 -30 -39 -73.5t-74 -43.5q-40 0 -73 54t-33 122q0 150 144 297t290 147q43 0 112 -24.5t119 -24.5q54 0 103 35q22 14 34 14q15 0 40.5 -15.5t25.5 -33.5
q0 -10 -53 -69q-80 -87 -111 -190.5t-63 -319.5t-70.5 -352.5t-119 -247t-189.5 -165.5t-238 -55q-153 0 -246.5 70.5t-93.5 134.5q0 37 72 99.5t94 62.5q29 0 36 -21t7 -73q0 -88 39.5 -141.5t103.5 -53.5q95 0 161.5 100t108.5 365t113 407t277 330z" />
    <glyph glyph-name="J" unicode="J" 
d="M1090 221q-93 -104 -365 -211q-94 -269 -251.5 -396.5t-297.5 -127.5q-64 0 -103.5 40.5t-39.5 106.5q0 220 428 369q76 451 112 616.5t83 261t145 221t123 165.5q-97 -52 -164 -52q-40 0 -97 24t-102 24q-75 0 -132.5 -56.5t-57.5 -128.5q0 -62 51 -101.5t51 -55.5
q0 -15 -45 -65t-72 -50q-26 0 -66 49.5t-40 124.5q0 151 143 298.5t289 147.5q48 0 104 -26.5t95 -26.5q54 0 116 53q78 -9 78 -30q0 -14 -45.5 -86.5t-82 -185t-62.5 -294.5l-15 -100q-64 -452 -112 -620q215 73 332 227v-115zM438 -88q-327 -116 -327 -270
q0 -31 19.5 -51.5t49.5 -20.5q67 0 139.5 80.5t118.5 261.5z" />
    <glyph glyph-name="K" unicode="K" horiz-adv-x="1729" 
d="M1049 1255q-111 -43 -187 -43q-54 0 -137.5 31t-120.5 31q-66 0 -113 -51.5t-47 -124.5q0 -84 76 -148q25 -21 25 -32q0 -17 -45.5 -63t-77.5 -46q-35 0 -70 59t-35 121q0 162 132 300t286 138q59 0 146.5 -33.5t126.5 -33.5q60 0 106 49q16 16 29 16t43.5 -10t30.5 -22
q0 -9 -56 -80.5t-87 -154.5t-58 -247l-21 -123q-60 -366 -141.5 -514.5t-204 -222.5t-264.5 -74q-135 0 -238.5 64t-103.5 143q0 39 68 98.5t98 59.5q47 0 47 -76q3 -213 135 -213q205 0 271 470q29 201 85.5 350.5t301.5 381.5zM1751 221q-120 -127 -211 -185.5t-192 -58.5
q-103 0 -170.5 76t-67.5 193q0 17 13.5 131.5t13.5 136.5q0 95 -39 135q-12 -2 -37 -2q-47 0 -47 41q0 60 62 60l44 -3q63 0 107 59t84 222q98 399 295 399q46 0 87.5 -35t41.5 -73q0 -23 -37 -95.5t-58 -72.5q-11 0 -33 37t-65 37q-84 0 -131 -183t-95 -249t-104 -86
q100 -52 145.5 -121t45.5 -183q0 -22 -4.5 -72t-4.5 -74q0 -112 91 -112q105 0 266 193v-115z" />
    <glyph glyph-name="L" unicode="L" horiz-adv-x="1300" 
d="M1323 221q-237 -241 -485 -241q-72 0 -138.5 18.5t-162 62.5t-168.5 64q-135 -148 -244 -148q-38 0 -63 25t-25 61q0 76 74.5 133.5t210.5 79.5q57 78 73 152.5t25 245.5q17 352 188.5 551.5t372.5 199.5q138 0 226.5 -87.5t88.5 -223.5q0 -157 -93 -275t-214 -118
q-63 0 -99 34.5t-36 94.5q0 31 12 72q27 -31 68 -31q68 0 119 81t51 193q0 86 -39 135.5t-107 49.5q-82 0 -127.5 -59t-63.5 -141t-38.5 -265t-68 -324.5t-177.5 -277.5q85 6 147.5 -10t179 -60.5t200.5 -44.5q164 0 313 168v-115z" />
    <glyph glyph-name="M" unicode="M" horiz-adv-x="2048" 
d="M2071 221q-224 -241 -408 -241q-112 0 -170.5 108t-58.5 289q0 140 57.5 385t148.5 412l58 104q-119 -124 -195 -271.5t-181.5 -412.5t-159.5 -361t-103.5 -156.5t-88 -78.5t-134.5 -18q-37 0 -37 20q0 2 13 63t26.5 195.5t19.5 457t94 552.5q-94 -107 -192 -498l-25 -98
q-103 -407 -236 -549.5t-261 -142.5q-79 0 -139 50t-60 115q0 50 72.5 112t91.5 62q22 0 29 -15t18 -82.5t33.5 -88t56.5 -20.5q77 0 170 154.5t170 477.5l29 121q35 148 69 236t90 176q81 126 99.5 134.5t69.5 14t102 5.5q20 0 20 -23q0 -11 -6 -45q-19 -140 -18 -281
l2 -268q2 -350 -56 -565q53 64 154 330q146 377 266 566q57 91 137.5 174.5t111.5 89.5q106 20 179 20q27 0 27 -15q0 -21 -33 -94q-78 -176 -145.5 -476t-67.5 -478q0 -201 123 -201q100 0 238 170v-115z" />
    <glyph glyph-name="N" unicode="N" horiz-adv-x="1812" 
d="M1266 276q84 214 164 623q56 298 131 412t176 114q82 0 82 -94q0 -54 -20.5 -76.5t-84.5 -31.5t-115 -71t-94 -256l-73 -333q-39 -173 -88 -302t-82 -191t-43 -69t-50 -11l-108 -13q-38 -2 -41.5 15t-10 129t-14.5 167.5t-58 302.5t-67 499q-7 -4 -83.5 -283.5t-105 -374
t-79.5 -202t-131 -180.5t-190 -73q-96 0 -154.5 60.5t-58.5 112.5q0 32 70.5 97.5t99.5 65.5q32 0 40 -70.5t35.5 -105.5t65.5 -35q149 0 293 568l30 121q85 328 136 475l32 94q11 31 21.5 38t52.5 13l105 14q23 4 35 4q22 0 29 -11t7 -42q0 -217 66.5 -583t79.5 -517z" />
    <glyph glyph-name="O" unicode="O" horiz-adv-x="1300" 
d="M791 1409q-227 -217 -330 -462.5t-103 -473.5q0 -146 58 -230.5t157 -84.5q198 0 412.5 346.5t214.5 642.5q0 88 -28.5 140t-75.5 52q-87 0 -161.5 -131t-74.5 -233q0 -73 68 -82q28 -3 28 -27q0 -44 -45 -86.5t-94 -42.5q-60 0 -100.5 54.5t-40.5 136.5q0 173 130.5 335
t266.5 162q93 0 147 -73.5t54 -202.5q0 -249 -138 -530t-345 -461.5t-390 -180.5q-142 0 -234.5 120t-92.5 309q0 201 80.5 407t209.5 367.5t205 203t222 41.5v-16z" />
    <glyph glyph-name="P" unicode="P" horiz-adv-x="1386" 
d="M928 1427q211 0 336 -102.5t125 -273.5q0 -158 -92.5 -253.5t-159.5 -95.5q-25 0 -56.5 22t-31.5 40q0 10 47 72q110 136 110 270q0 113 -76 179.5t-206 66.5q-196 0 -355 -119.5t-159 -261.5q0 -94 86 -129q34 -15 34 -41q0 -27 -75 -63t-105 -36q-45 0 -85 59.5
t-40 129.5q0 188 202 362t501 174zM1116 1167q-66 -59 -96 -137.5t-61 -327t-100.5 -391.5t-219 -238.5t-328.5 -95.5q-127 0 -206.5 63t-79.5 161q0 37 23 60.5t94 63.5t96 40q17 0 29 -11.5t12 -27.5q0 -10 -9.5 -74t-9.5 -76q0 -119 100 -119q113 0 190 132.5t111.5 414
t104.5 397.5t163.5 164.5t129.5 48.5q25 0 57 -47z" />
    <glyph glyph-name="Q" unicode="Q" horiz-adv-x="1300" 
d="M1323 221q-123 -125 -206.5 -184.5t-149.5 -59.5q-63 0 -110.5 41t-113.5 123q-204 -164 -370 -164q-145 0 -237.5 119t-92.5 307q0 201 79 404t200.5 358.5t199.5 207.5t238 52l2 -14q-228 -214 -331 -463t-103 -477q0 -148 58 -231.5t159 -83.5q67 0 153 53
q-50 71 -80 94t-71 23q-3 0 -19.5 -3.5t-19.5 -3.5q-14 0 -14 13q0 26 59.5 76.5t120.5 50.5q47 0 85.5 -26t90.5 -79q319 407 319 793q0 87 -28.5 138.5t-75.5 51.5q-87 0 -161.5 -131t-74.5 -231q0 -75 68 -84q29 -3 29 -25q0 -45 -45.5 -87t-94.5 -42q-60 0 -100.5 53.5
t-40.5 135.5q0 173 130.5 336t264.5 163q95 0 149 -74.5t54 -205.5q0 -411 -348 -854q94 -139 174 -139q100 0 254 184v-115z" />
    <glyph glyph-name="R" unicode="R" horiz-adv-x="1642" 
d="M1665 221q-117 -126 -209 -185t-186 -59q-98 0 -157.5 64t-59.5 168q0 62 28.5 171t28.5 167q0 93 -61 96q-37 3 -37 35q0 59 43 59l67 -4q94 0 149.5 92t55.5 222q0 303 -344 303q-219 0 -389 -118.5t-170 -264.5q0 -83 82 -125q39 -20 39 -49q0 -26 -76 -59.5
t-104 -33.5q-44 0 -79.5 57.5t-35.5 131.5q0 222 225 380t549 158q272 0 423.5 -117t151.5 -284q0 -105 -83.5 -204t-327.5 -154q89 -51 129.5 -110.5t40.5 -149.5q0 -50 -10.5 -112t-10.5 -79q0 -86 68 -86q91 0 260 205v-115zM1151 1178q-82 -67 -110 -143t-56 -279.5
t-63.5 -324t-123.5 -227.5t-212.5 -167t-257.5 -60q-144 0 -215.5 69.5t-71.5 160.5q0 29 22.5 52t92.5 63t96 40q33 0 33 -38q0 -9 -10.5 -68t-10.5 -70q0 -56 32 -92.5t81 -36.5q104 0 184 132t112.5 389.5t85.5 374t154.5 188t182.5 71.5q23 0 55 -34z" />
    <glyph glyph-name="S" unicode="S" horiz-adv-x="1153" 
d="M1067 1245q0 -39 -129 -192h-18q-20 8 -25 59q-11 103 -71 168.5t-144 65.5q-79 0 -136 -57.5t-57 -137.5q0 -58 36 -124.5t187.5 -210.5t194.5 -229.5t43 -162.5q0 -178 -154.5 -313.5t-361.5 -135.5q-171 0 -282 79.5t-111 129.5q0 28 61 130t70 102q32 0 45.5 -18.5
t18.5 -68.5q15 -156 75.5 -215t157.5 -59q106 0 185 73.5t79 170.5q0 50 -30.5 106.5t-173 192t-186.5 229.5t-44 183q0 155 117 285t311 130q147 0 244.5 -67.5t97.5 -112.5z" />
    <glyph glyph-name="T" unicode="T" horiz-adv-x="1386" 
d="M1395 1362q-29 -215 -183 -215q-54 0 -207 48t-264 48q-143 0 -247.5 -106t-104.5 -185q0 -77 96 -137q39 -25 39 -45q0 -27 -55.5 -73t-83.5 -46q-47 0 -88 54t-41 118q0 124 101 270.5t264 239t342 92.5q121 0 229 -36.5t135 -36.5q24 0 41 14l6 2zM1020 1055
q39 0 39 -25l-24 -133l-5 -247q-5 -121 -37 -223q-29 -95 -81 -173q-47 -72 -113 -127q-61 -51 -134 -86q-68 -32 -143 -48q-69 -16 -139 -16q-163 0 -255.5 70.5t-92.5 136.5q0 38 68.5 98t103.5 60q43 0 43 -80q0 -130 42.5 -168.5t113.5 -38.5q115 0 201.5 73
t116.5 174.5t31 299.5t29.5 272.5t104.5 127.5t131 53z" />
    <glyph glyph-name="U" unicode="U" horiz-adv-x="1556" 
d="M1579 221q-228 -244 -391 -244q-85 0 -159 77t-68 259q-175 -336 -398 -336q-108 0 -173.5 83t-65.5 223q0 151 122 499q103 298 103 396q0 70 -32.5 112.5t-84.5 42.5q-79 0 -153 -93.5t-74 -195.5q0 -90 67 -151q25 -22 25 -37q0 -33 -44 -81t-79 -48q-41 0 -78 59
t-37 129q0 191 138 350.5t301 159.5q128 0 208 -99.5t80 -260.5q0 -189 -118 -520q-82 -229 -82 -309q0 -52 23.5 -81.5t64.5 -29.5q77 0 147 104t111.5 218t100.5 333l87 311q36 124 63 203.5t34.5 90t25 14.5t66.5 10l143 16q31 0 27 -14l-47 -170q-66 -235 -140.5 -557
t-74.5 -410q0 -66 25 -105.5t67 -39.5q47 0 102 41t168 166v-115z" />
    <glyph glyph-name="V" unicode="V" horiz-adv-x="1386" 
d="M1268 1425q32 0 65 -98t33 -203q0 -233 -103.5 -516.5t-265 -457t-335.5 -173.5q-141 0 -229.5 100t-88.5 261q0 151 109 440q100 275 100 393q0 78 -30 121t-83 43q-82 0 -154.5 -91.5t-72.5 -196.5q0 -85 44 -126.5t44 -62.5q0 -36 -43.5 -83.5t-77.5 -47.5
q-42 0 -78 57.5t-36 128.5q0 182 130.5 348t305.5 166q134 0 214.5 -100.5t80.5 -269.5q0 -78 -20 -176t-97.5 -307.5t-77.5 -317.5q0 -71 41.5 -117.5t104.5 -46.5q96 0 201 114.5t174 297t69 352.5q0 161 -98 348q-31 56 -31 78q0 38 87.5 90.5t117.5 52.5z" />
    <glyph glyph-name="W" unicode="W" horiz-adv-x="1962" 
d="M961 315q-180 -338 -392 -338q-111 0 -178 81.5t-67 215.5q0 156 111.5 474t111.5 450q0 59 -33.5 98t-83.5 39q-77 0 -153 -94t-76 -192q0 -75 68 -156q28 -34 28 -47q0 -15 -43 -67t-74 -52q-33 0 -75 48t-42 143q0 193 135.5 351t299.5 158q123 0 208 -102t85 -254
q0 -160 -102.5 -452.5t-102.5 -391.5q0 -47 24 -74.5t64 -27.5q87 0 173 142t157 407l94 352q55 208 123 363q7 17 93.5 26.5t125.5 9.5t39 -16l-183 -698q-79 -307 -79 -449q0 -62 26 -98.5t70 -36.5q65 0 177.5 106.5t189.5 272t77 338.5q0 185 -90 368q-25 53 -25 66
q0 43 82.5 95t118.5 52q34 0 68.5 -90.5t34.5 -189.5q0 -263 -123 -538.5t-306 -452.5t-331 -177q-105 0 -166.5 84.5t-58.5 253.5z" />
    <glyph glyph-name="X" unicode="X" horiz-adv-x="1473" 
d="M1495 221q-106 -111 -242 -177.5t-245 -66.5q-129 0 -228 104t-110 316q-200 -420 -432 -420q-82 0 -135.5 57.5t-53.5 88.5q0 23 79 96.5t103 73.5q23 0 31.5 -45.5t37.5 -74t69 -28.5q83 0 176 177.5t162 442.5t69 376q0 89 -37.5 141.5t-101.5 52.5q-94 0 -183 -101
t-89 -208q0 -131 135 -131q37 0 37 -21q0 -18 -49.5 -86.5t-108.5 -68.5q-65 0 -113.5 60.5t-48.5 144.5q0 171 152.5 336t337.5 165q137 0 221.5 -90t83.5 -286q92 193 178.5 284.5t157.5 91.5q47 0 87 -33t40 -71q0 -41 -45 -98.5t-70 -57.5q-19 0 -43 43t-57 43
q-62 0 -138.5 -151t-135 -376t-58.5 -339q0 -117 59.5 -187.5t157.5 -70.5q174 0 350 209v-115z" />
    <glyph glyph-name="Y" unicode="Y" horiz-adv-x="1556" 
d="M1579 221q-100 -124 -367 -207q-95 -272 -233 -401t-287 -129q-76 0 -122 41.5t-46 109.5q0 215 424 363l23 94q99 403 123 481l57 191q-11 -21 -47 -101q-173 -388 -308 -530.5t-266 -142.5q-100 0 -162.5 78t-62.5 204q0 158 112.5 482t112.5 432q0 66 -34.5 109.5
t-87.5 43.5q-82 0 -154 -91t-72 -195q0 -95 68 -154q24 -22 24 -35q0 -30 -39.5 -82.5t-78.5 -52.5q-42 0 -80.5 59t-38.5 125q0 177 130 348t310 171q128 0 209.5 -100.5t81.5 -260.5q0 -192 -123 -532q-84 -235 -84 -332q0 -90 66 -90q122 0 312 366.5t343 882.5
q7 26 24.5 34t120 20t109.5 12q26 0 23 -15l-54 -217l-155 -678q-32 -140 -107 -413q206 65 336 227v-115zM924 -90q-150 -51 -237 -125.5t-87 -140.5q0 -37 26 -61.5t64 -24.5q75 0 129.5 86t104.5 266z" />
    <glyph glyph-name="Z" unicode="Z" horiz-adv-x="1153" 
d="M1176 221q-132 -126 -245.5 -185t-244.5 -59q-85 0 -214 53.5t-212 53.5q-53 0 -78.5 -16.5t-38.5 -57.5q-11 -33 -32 -33q-47 0 -59.5 4t-12.5 21q0 20 52 127.5t172 262.5t386 437l68 72q192 204 248 293q-68 -35 -156 -35q-75 0 -196.5 27.5t-174.5 27.5
q-78 0 -128 -37.5t-50 -95.5q0 -53 50 -95t50 -66q0 -29 -49 -72t-69 -43q-33 0 -66 50.5t-33 105.5q0 167 148 316.5t313 149.5q43 0 177.5 -27.5t185.5 -27.5q70 0 102.5 26.5t44.5 26.5q37 0 37 -16q0 -49 -46.5 -136.5t-112.5 -171t-314 -353.5t-311 -345t-111 -161
q94 27 129 34t94 7q102 0 245.5 -50.5t211.5 -50.5q63 0 117 38t123 116v-115z" />
    <glyph glyph-name="bracketleft" unicode="[" horiz-adv-x="981" 
d="M997 1427l-26 -92h-219l-443 -1702h219l-26 -92h-465l491 1886h469z" />
    <glyph glyph-name="backslash" unicode="\" horiz-adv-x="812" 
d="M756 -453h-230l-448 1883h231z" />
    <glyph glyph-name="bracketright" unicode="]" horiz-adv-x="981" 
d="M979 1427l-502 -1886h-465l21 92h223l449 1702h-220l25 92h469z" />
    <glyph glyph-name="asciicircum" unicode="^" horiz-adv-x="1167" 
d="M1106 666h-160l-295 512l-291 -512h-151l409 718h82z" />
    <glyph glyph-name="underscore" unicode="_" horiz-adv-x="1024" 
d="M1040 -256h-1060v102h1060v-102z" />
    <glyph glyph-name="grave" unicode="`" horiz-adv-x="682" 
d="M414 975l-47 -27q-231 137 -336 350l231 39q26 -172 152 -362z" />
    <glyph glyph-name="a" unicode="a" 
d="M1090 221q-160 -152 -229 -198t-132 -46q-158 0 -149 279q-100 -143 -184.5 -211t-174.5 -68q-88 0 -149.5 82.5t-61.5 202.5q0 150 82.5 286t211.5 220t228 84q125 0 175 -115l204 113h56l-88 -293q-68 -221 -68 -303q0 -86 61 -86q39 0 86 41.5t132 126.5v-115z
M358 166q100 0 188.5 170.5t88.5 314.5q0 56 -25 87.5t-67 31.5q-100 0 -189.5 -170t-89.5 -313q0 -54 26.5 -87.5t67.5 -33.5z" />
    <glyph glyph-name="b" unicode="b" horiz-adv-x="897" 
d="M920 221q-69 -74 -168 -74q-78 0 -166 74q-107 -123 -189.5 -182t-179.5 -59q-87 0 -146 72t-59 179q0 209 122 563.5t239 536.5q132 42 232.5 68t115.5 26q29 0 50.5 -38.5t21.5 -92.5q0 -112 -93 -262.5t-241 -298.5l-131 -131q-62 -218 -62 -321q0 -57 26 -91t68 -34
q49 0 88.5 31t88.5 96q-50 86 -50 176q0 145 78.5 268t167.5 123q35 0 57.5 -31t22.5 -82q0 -164 -184 -448q55 -68 125 -68q44 0 76 20.5t90 94.5v-115zM377 756q162 159 246 293.5t84 203.5q0 28 -12.5 46t-30.5 18q-117 0 -287 -561z" />
    <glyph glyph-name="c" unicode="c" horiz-adv-x="748" 
d="M770 221q-128 -126 -234.5 -185t-222.5 -59q-130 0 -214.5 84.5t-84.5 214.5q0 213 155.5 393.5t336.5 180.5q89 0 145 -49.5t56 -128.5q0 -28 -10.5 -42t-39.5 -28l-116 -55q-21 -10 -31 -10q-14 0 -14 20q0 8 6 52.5t6 54.5q0 44 -18.5 71t-49.5 27q-73 0 -133.5 -108
t-60.5 -246q0 -119 57 -190t152 -71q81 0 152.5 46.5t162.5 142.5v-115z" />
    <glyph glyph-name="d" unicode="d" 
d="M1090 221q-144 -143 -219.5 -193.5t-133.5 -50.5q-71 0 -112.5 69t-42.5 202q-82 -133 -178.5 -202t-174.5 -69q-85 0 -150 80.5t-65 188.5q0 223 162.5 413.5t349.5 190.5q52 0 81.5 -15t64.5 -51l143 598q175 41 236 41q20 0 20 -16q0 -11 -50 -207
q-200 -784 -200 -946q0 -38 16 -61t42 -23q64 0 211 166v-115zM367 168q98 0 183 166t85 311q0 59 -26.5 94t-69.5 35q-93 0 -180 -173.5t-87 -313.5q0 -55 25.5 -87t69.5 -32z" />
    <glyph glyph-name="e" unicode="e" horiz-adv-x="748" 
d="M770 221q-127 -125 -228 -184.5t-223 -59.5q-136 0 -219.5 87t-83.5 229q0 212 147 383.5t326 171.5q93 0 149 -48t56 -126q0 -207 -440 -336q40 -195 209 -195q66 0 126 35.5t181 157.5v-115zM246 406q256 72 256 266q0 96 -70 96q-66 0 -126 -100.5t-60 -261.5z" />
    <glyph glyph-name="f" unicode="f" horiz-adv-x="811" 
d="M834 221q-104 -117 -206 -180.5t-182 -63.5q-38 0 -104 29q-42 -220 -74 -475q-104 -14 -250 -43q32 274 111 711q-11 19 -39 96l-67 -74h-23v90l190 197q55 269 89 389t95 265.5t77 167t77.5 41t131.5 37t75 17.5q38 0 62 -49.5t24 -130.5q0 -140 -74 -270t-280 -320
l-84 -417q49 -105 147 -105q140 0 304 203v-115zM498 791q117 102 183.5 219.5t66.5 216.5q0 42 -15.5 69t-38.5 27q-44 0 -89.5 -115t-106.5 -417z" />
    <glyph glyph-name="g" unicode="g" horiz-adv-x="981" 
d="M1004 221q-127 -133 -304 -196q-83 -259 -210.5 -399t-270.5 -140q-78 0 -126 49t-48 129q0 107 95.5 192t324.5 164l43 197q-96 -108 -166 -158.5t-141 -50.5q-83 0 -136 78t-53 203q0 204 155.5 382.5t330.5 178.5q97 0 172 -82q45 16 117 48l71 32h23
q-39 -118 -60 -230l-94 -501q135 51 277 219v-115zM360 188q71 0 126 84t85.5 213t30.5 179q0 47 -23.5 77.5t-58.5 30.5q-106 0 -185 -143t-79 -291q0 -69 28.5 -109.5t75.5 -40.5zM444 -68q-323 -116 -323 -268q0 -45 27 -73.5t69 -28.5q72 0 125 91t102 279z" />
    <glyph glyph-name="h" unicode="h" horiz-adv-x="981" 
d="M1004 221q-237 -246 -390 -246q-68 0 -112.5 46.5t-44.5 117.5q0 120 92 338q49 118 49 154q0 41 -39 41q-40 0 -116 -54.5t-160 -148.5q-35 -184 -35 -442l-223 -52q-13 105 -13 228q0 298 82 555t258 545q131 53 228.5 86.5t111.5 33.5q26 0 44 -42t18 -105
q0 -106 -65 -234.5t-204 -310.5q133 77 177 97t90 20q51 0 82.5 -36.5t31.5 -96.5q0 -90 -71.5 -279t-71.5 -237q0 -22 13.5 -39t31.5 -17q64 0 236 193v-115zM311 631q357 415 357 612q0 60 -33 60q-55 0 -157 -197t-167 -475z" />
    <glyph glyph-name="i" unicode="i" horiz-adv-x="492" 
d="M494 1239q0 -240 -177 -240q-86 0 -147 52q58 88 90 198q79 -49 127 -49q54 0 107 39zM514 221q-234 -246 -350 -246q-64 0 -108 65.5t-44 164.5q0 213 144 590l254 53h12l-100 -313q-62 -194 -62 -277q0 -33 14.5 -53.5t36.5 -20.5q39 0 78.5 28.5t124.5 123.5v-115z
" />
    <glyph glyph-name="j" unicode="j" horiz-adv-x="748" 
d="M748 1241q-19 -244 -203 -244q-86 0 -152 58q87 111 103 192q80 -49 133 -49q60 0 119 43zM770 221q-94 -95 -233 -170q-37 -273 -139.5 -419t-209.5 -146q-67 0 -114 55.5t-47 136.5q0 196 264 330l74 602q-208 -260 -342 -389h-23v90q133 127 358 420l62 80
q105 12 235 39q-44 -238 -104 -703q92 46 217 187zM285 -84q-84 -39 -132.5 -105.5t-48.5 -136.5q0 -45 21 -76.5t49 -31.5q69 0 90 176z" />
    <glyph glyph-name="k" unicode="k" horiz-adv-x="981" 
d="M1004 223q-227 -248 -377 -248q-72 0 -121 50.5t-49 124.5q0 35 12 105t12 79q0 46 -52 47.5t-52 40.5q0 34 14.5 47.5t54.5 13.5q110 3 164 45.5t54 100.5q0 41 -29.5 67.5t-75.5 26.5q-25 0 -48 -6q-24 -6 -46 -18q-23 -13 -48 -33q-24 -21 -51 -51q-26 -29 -57 -69
q-16 -21 -40 -197q-12 -91 -16 -168q-4 -72 -1 -163l-227 -38q-13 76 -13 186q0 300 81 573t265 561q143 58 247 90.5t116 32.5q24 0 47 -48t23 -101q0 -89 -59 -194.5t-183 -254.5q85 25 141 25q93 0 152 -47.5t59 -120.5q0 -166 -299 -244q117 -27 117 -137l-6 -90
q0 -61 57 -61q40 0 91 39t143 149v-115zM348 705l66 73q293 330 293 465q0 62 -54 62q-62 0 -142.5 -146t-162.5 -454z" />
    <glyph glyph-name="l" unicode="l" horiz-adv-x="662" 
d="M684 221q-136 -125 -238.5 -184.5t-195.5 -59.5q-107 0 -172.5 83t-65.5 223q0 210 91 504t221 542l254 94q12 4 18 4q29 0 47.5 -42.5t18.5 -114.5q0 -204 -94 -395t-294 -408q-8 -104 -8 -143q0 -87 32 -138t85 -51q54 0 115 39t186 162v-115zM301 612q127 141 206 316
t79 301q0 37 -11 59.5t-28 22.5q-37 0 -107.5 -184t-138.5 -515z" />
    <glyph glyph-name="m" unicode="m" horiz-adv-x="1473" 
d="M1495 221q-125 -122 -214 -183t-173 -61q-66 0 -104.5 45.5t-38.5 122.5q0 108 54 274t54 202q0 32 -33 32q-10 0 -24 -7q-15 -7 -34 -20q-19 -14 -41 -34t-46 -46q-26 -26 -52 -57q-44 -52 -52 -87l-33 -143l-60 -236l-254 -46l97 412q11 45 26 132t15 104q0 34 -23 34
q-7 0 -20 -7q-15 -7 -34 -21q-22 -16 -47 -38q-27 -24 -58 -55q-33 -33 -68 -73q-48 -54 -60 -126q-16 -86 -22 -154q-7 -68 -8 -152l-222 -53q-8 115 -8 192q0 183 38 318.5t124 316.5l242 47q-65 -163 -101 -315q269 313 412 313q52 0 84.5 -42.5t32.5 -111.5
q0 -32 -10 -118q169 169 242.5 220.5t135.5 51.5q55 0 90 -44t35 -112q0 -107 -59 -275t-59 -222q0 -56 41 -56q26 0 72.5 34.5t162.5 158.5v-115z" />
    <glyph glyph-name="n" unicode="n" horiz-adv-x="981" 
d="M1004 221q-231 -244 -396 -244q-67 0 -108 47t-41 126q0 107 88 327q47 118 47 150t-25 32q-14 0 -37 -14q-21 -14 -49 -39q-25 -23 -56 -56q-27 -28 -58 -64l-56 -65q-37 -45 -46 -95q-15 -85 -20 -156q-3 -53 -3 -143l-221 -52q-11 135 -11 201q0 161 37.5 305
t120.5 324l244 47q-77 -207 -101 -326q164 183 260.5 253.5t171.5 70.5q51 0 85 -38.5t34 -96.5q0 -96 -86 -316q-59 -151 -59 -196q0 -60 49 -60q73 0 236 193v-115z" />
    <glyph glyph-name="o" unicode="o" horiz-adv-x="897" 
d="M920 221q-51 -45 -99 -63.5t-76 -18.5q-72 0 -143 56q-144 -218 -330 -218q-116 0 -188 87t-72 231q0 228 162 391.5t387 163.5q85 0 124.5 -18.5t48.5 -43.5t9 -63q0 -187 -102 -459q51 -47 107 -47q67 0 172 117v-115zM590 780q-15 6 -43 6q-130 0 -203.5 -136
t-73.5 -318q0 -101 32 -157t89 -56q71 0 154 131q-94 118 -94 254q0 160 139 276z" />
    <glyph glyph-name="p" unicode="p" horiz-adv-x="1153" 
d="M500 678q72 87 136 128.5t142 41.5q101 0 164.5 -77.5t63.5 -203.5q0 -221 -152.5 -405.5t-331.5 -184.5q-50 0 -79 11t-76 51q-72 -317 -93 -508l-254 -45q71 468 181 948q-132 -173 -178 -213h-23v90q190 205 313 498l226 41zM385 143q52 -86 115 -86
q101 0 178.5 153.5t77.5 299.5q0 77 -31.5 124.5t-81.5 47.5q-39 0 -82 -35t-65 -81.5t-50 -162.5z" />
    <glyph glyph-name="q" unicode="q" 
d="M1090 221q-377 -389 -476 -688q-163 -20 -258 -47l207 717q-177 -226 -342 -226q-91 0 -151 69.5t-60 176.5q0 145 83.5 294t215 242t258.5 93q131 0 174 -123q105 58 179 123h67l-262 -942q165 231 365 426v-115zM354 154q113 0 214.5 184.5t101.5 318.5q0 51 -26 84
t-64 33q-119 0 -217.5 -194t-98.5 -334q0 -38 26.5 -65t63.5 -27z" />
    <glyph glyph-name="r" unicode="r" horiz-adv-x="748" 
d="M770 221q-251 -246 -387 -246q-61 0 -103 51.5t-42 127.5q0 141 151 378q-74 -38 -162 -53q-65 -120 -204 -258h-23v90q78 81 141 174q-86 38 -86 113q0 77 52.5 164.5t144.5 87.5q78 0 78 -80q0 -63 -45 -180q166 18 290 254l91 4l-93 -256q-58 -162 -75 -220.5
t-17 -103.5q0 -42 19.5 -67t52.5 -25q36 0 69 24.5t148 135.5v-115z" />
    <glyph glyph-name="s" unicode="s" horiz-adv-x="831" 
d="M330 807q69 18 139 29.5t84 11.5q10 0 10 -8q0 -15 -8 -31q-16 -46 -16 -88q0 -52 60 -142t60 -167q0 -153 -146.5 -295t-303.5 -142q-68 0 -124 36t-56 77q0 24 55.5 91t79.5 67q32 0 57 -82t86 -82t114.5 56.5t53.5 121.5q0 63 -68 168t-90 176q-116 -187 -294 -383
h-23v90q245 261 330 496z" />
    <glyph glyph-name="t" unicode="t" horiz-adv-x="575" 
d="M598 221q-126 -125 -218 -184.5t-175 -59.5q-86 0 -139.5 72.5t-53.5 190.5q0 104 50 275l44 151l-77 -4l32 157l95 4l94 312l268 55l-102 -348l139 8l-33 -154l-155 -12l-67 -224q-34 -117 -34 -186q0 -47 23.5 -76.5t60.5 -29.5q51 0 101 32.5t147 135.5v-115z" />
    <glyph glyph-name="u" unicode="u" 
d="M1090 221q-132 -125 -221 -184.5t-160 -59.5q-79 0 -121.5 63t-42.5 171q-110 -121 -197 -178.5t-170 -57.5q-76 0 -122 63t-46 171q0 208 140 586l266 53q-164 -479 -164 -615q0 -96 72 -96q52 0 129 84.5t96 147.5l131 426l272 55q-94 -301 -129 -423t-35 -171
q0 -94 64 -94q52 0 154 95l84 79v-115z" />
    <glyph glyph-name="v" unicode="v" horiz-adv-x="897" 
d="M920 221q-46 -40 -93 -57t-73 -17q-73 0 -144 56q-178 -226 -377 -226q-104 0 -162.5 71.5t-58.5 199.5q0 141 70 346l70 205l272 51l-121 -361q-19 -59 -36 -140t-17 -116q0 -54 28.5 -90.5t69.5 -36.5q96 0 207 164q-51 102 -51 205q0 143 75.5 258t165.5 115
q68 0 68 -105q0 -203 -164 -469q51 -47 107 -47q68 0 164 109v-115z" />
    <glyph glyph-name="w" unicode="w" horiz-adv-x="1386" 
d="M1409 221q-48 -40 -96 -57t-74 -17q-73 0 -143 56q-182 -226 -375 -226q-142 0 -203 156q-134 -156 -289 -156q-101 0 -159 66.5t-58 183.5q0 126 35.5 256t108.5 318l264 49l-74 -223q-94 -290 -94 -400q0 -52 25 -85t63 -33q80 0 160 124q0 157 57 326l82 242l268 49
l-112 -346q-54 -167 -54 -264q0 -59 26 -94t69 -35q53 0 100 39t106 118q-53 97 -53 201q0 150 75 265.5t169 115.5q65 0 65 -98q0 -211 -163 -478q50 -47 106 -47q67 0 168 109v-115z" />
    <glyph glyph-name="x" unicode="x" horiz-adv-x="1153" 
d="M1176 221q-249 -246 -435 -246q-176 0 -231 203q-100 -203 -270 -203q-69 0 -126 38t-57 81q0 20 58 69.5t69 49.5q16 0 31 -43q33 -90 94 -90q66 0 117.5 100.5t80 249.5t28.5 184q0 107 -78 107q-98 0 -260 -275q-86 -146 -174 -225h-23v90q53 52 117 154
q124 200 224.5 291.5t201.5 91.5q167 0 200 -195q50 101 104.5 148t131.5 47q76 0 115 -46.5t39 -88.5q0 -14 -56 -67.5t-78 -53.5q-14 0 -15 36.5t-20.5 70.5t-50.5 34q-78 0 -136 -206.5t-58 -313.5q0 -57 29 -92t75 -35q133 0 353 250v-115z" />
    <glyph glyph-name="y" unicode="y" 
d="M1090 221q-127 -123 -406 -252q-93 -264 -209 -373.5t-242 -109.5q-64 0 -102.5 39t-38.5 104q0 197 361 357l61 215q-189 -211 -332 -211q-77 0 -124.5 63t-47.5 168q0 151 66 324l96 254l291 51l-125 -297q-86 -215 -86 -324q0 -90 61 -90q62 0 141.5 100t133.5 246
l114 314l273 51l-260 -782q229 105 375 268v-115zM424 -113q-123 -55 -189.5 -123.5t-66.5 -134.5q0 -67 57 -67q111 0 199 325z" />
    <glyph glyph-name="z" unicode="z" horiz-adv-x="981" 
d="M1004 221q-136 -150 -204.5 -198t-135.5 -48q-38 0 -139.5 33t-153.5 33q-65 0 -94.5 -33t-38.5 -33q-50 0 -60 1.5t-10 7.5q0 22 171 231l345 420q-58 -12 -125 -12q-90 0 -186 30q-180 -258 -350 -432h-23v90q127 130 244.5 291.5t136.5 203.5t31 42q7 0 92 -13.5
t137 -13.5q94 0 172.5 13.5t91.5 13.5q19 0 19 -10q0 -37 -161 -230l-323 -391q40 4 66 4q19 0 129.5 -22.5t132.5 -22.5q62 0 106.5 33.5t129.5 126.5v-115z" />
    <glyph glyph-name="braceleft" unicode="{" horiz-adv-x="807" 
d="M717 -416q-196 -1 -304 97t-108 225q0 59 26.5 165.5t26.5 172.5q0 178 -194 211v59q194 35 194 219q0 74 -25.5 175t-25.5 153q0 118 104.5 219.5t305.5 103.5v-45q-195 -41 -195 -188q0 -56 24.5 -158t24.5 -178q0 -99 -76 -192.5t-251 -137.5q189 -54 259 -147
t70 -184q0 -64 -24.5 -162.5t-24.5 -163.5q0 -160 193 -199v-45z" />
    <glyph glyph-name="bar" unicode="|" horiz-adv-x="1118" 
d="M639 -512h-160v2048h160v-2048z" />
    <glyph glyph-name="braceright" unicode="}" horiz-adv-x="807" 
d="M643 453q-194 -35 -194 -217q0 -61 20 -150q31 -117 31 -178q0 -118 -105 -219.5t-305 -104.5v45q195 38 195 189q0 53 -24.5 156.5t-24.5 179.5q0 100 77.5 193t249.5 134q-179 52 -254.5 145t-75.5 187q0 49 25 156t25 172q0 160 -193 198v45q196 2 304 -96.5
t108 -224.5q0 -71 -26.5 -171t-26.5 -169q0 -176 194 -209v-61z" />
    <glyph glyph-name="asciitilde" unicode="~" horiz-adv-x="1366" 
d="M1227 829q-6 -152 -79.5 -237.5t-189.5 -85.5q-59 0 -121.5 20t-231.5 90t-232 70q-149 0 -176 -178h-58q4 169 81.5 246t178.5 77q49 0 124 -20.5t257 -99.5q148 -64 213 -64q155 0 176 182h58z" />
    <glyph glyph-name="Adieresis" unicode="&#xc4;" horiz-adv-x="1386" 
d="M1409 221q-230 -246 -422 -246q-106 0 -168 75t-69 214q-121 -147 -214.5 -218t-199.5 -71q-136 0 -218.5 117.5t-82.5 313.5q0 234 108 482.5t320 392.5t514 144q226 0 409 -61v-66q-149 -174 -249.5 -487t-100.5 -477q0 -80 32.5 -124t90.5 -44q104 0 250 170v-115z
M1118 1298q-92 50 -198 50q-167 0 -301 -139.5t-211.5 -369.5t-77.5 -399q0 -113 43.5 -183.5t111.5 -70.5q118 0 271 215q63 564 362 897zM1231 1759q-13 -162 -125 -162q-54 0 -153 61q64 104 92 185q109 -68 186 -84zM873 1763q-19 -164 -133 -164q-63 0 -144 61
q60 97 86 183q121 -75 191 -80z" />
    <glyph glyph-name="Aring" unicode="&#xc5;" horiz-adv-x="1386" 
d="M1409 221q-230 -246 -422 -246q-106 0 -168 75t-69 214q-121 -147 -214.5 -218t-199.5 -71q-136 0 -218.5 117.5t-82.5 313.5q0 234 108 482.5t320 392.5t514 144q226 0 409 -61v-66q-149 -174 -249.5 -487t-100.5 -477q0 -80 32.5 -124t90.5 -44q104 0 250 170v-115z
M1118 1298q-92 50 -198 50q-167 0 -301 -139.5t-211.5 -369.5t-77.5 -399q0 -113 43.5 -183.5t111.5 -70.5q118 0 271 215q63 564 362 897zM956 1911q81 0 137 -54t56 -132t-55.5 -133.5t-132.5 -55.5q-78 0 -133.5 55.5t-55.5 133.5q0 75 55 130.5t129 55.5zM961 1610
q47 0 81.5 34t34.5 81q0 46 -34.5 80.5t-79.5 34.5q-48 0 -82.5 -34t-34.5 -81q0 -48 33.5 -81.5t81.5 -33.5z" />
    <glyph glyph-name="Ccedilla" unicode="&#xc7;" horiz-adv-x="1153" 
d="M1176 221q-194 -203 -443 -235l-45 -54q133 -24 133 -147q0 -54 -31 -97.5t-98 -79.5t-135.5 -45t-169.5 -9l14 79q209 0 209 121q0 88 -108 92q85 84 119 129q-257 2 -410.5 150t-153.5 387q0 235 111 447t290.5 339t352.5 127q145 0 236.5 -87t91.5 -226
q0 -181 -110.5 -313.5t-258.5 -132.5q-78 0 -128 40t-50 103q0 54 43 100q32 -59 88 -59q80 0 148.5 100t68.5 219q0 83 -38.5 132t-102.5 49q-93 0 -198.5 -116t-176 -298t-70.5 -346q0 -209 118.5 -343t301.5 -134q116 0 209 54t193 169v-115z" />
    <glyph glyph-name="Eacute" unicode="&#xc9;" 
d="M1090 221q-129 -126 -259 -185t-294 -59q-217 0 -347.5 105t-130.5 276q0 149 107 261.5t328 156.5q-213 81 -213 273q0 153 147 264.5t354 111.5q149 0 216 -58.5t67 -106.5q0 -30 -50 -93t-73 -63q-27 0 -39 76q-28 170 -137 170q-85 0 -154 -95t-69 -215
q0 -192 188 -192q31 0 42 -3.5t11 -17.5q0 -38 -15 -83.5t-38 -45.5q-7 0 -50 5.5t-75 5.5q-106 0 -182 -87t-76 -210q0 -133 89 -220.5t225 -87.5q112 0 224 60t204 172v-115zM1067 1907q-27 -109 -111.5 -192t-261.5 -181l-61 21q149 173 204 328z" />
    <glyph glyph-name="Ntilde" unicode="&#xd1;" horiz-adv-x="1812" 
d="M1266 276q84 214 164 623q56 298 131 412t176 114q82 0 82 -94q0 -54 -20.5 -76.5t-84.5 -31.5t-115 -71t-94 -256l-73 -333q-39 -173 -88 -302t-82 -191t-43 -69t-50 -11l-108 -13q-38 -2 -41.5 15t-10 129t-14.5 167.5t-58 302.5t-67 499q-7 -4 -83.5 -283.5t-105 -374
t-79.5 -202t-131 -180.5t-190 -73q-96 0 -154.5 60.5t-58.5 112.5q0 32 70.5 97.5t99.5 65.5q32 0 40 -70.5t35.5 -105.5t65.5 -35q149 0 293 568l30 121q85 328 136 475l32 94q11 31 21.5 38t52.5 13l105 14q23 4 35 4q22 0 29 -11t7 -42q0 -217 66.5 -583t79.5 -517z
M1647 1758q-48 -99 -101.5 -145t-130.5 -46q-61 0 -141 44t-129 44q-72 0 -110 -71l-56 34q78 195 232 195q65 0 149 -42t117 -42q74 0 113 78z" />
    <glyph glyph-name="Odieresis" unicode="&#xd6;" horiz-adv-x="1300" 
d="M791 1409q-227 -217 -330 -462.5t-103 -473.5q0 -146 58 -230.5t157 -84.5q198 0 412.5 346.5t214.5 642.5q0 88 -28.5 140t-75.5 52q-87 0 -161.5 -131t-74.5 -233q0 -73 68 -82q28 -3 28 -27q0 -44 -45 -86.5t-94 -42.5q-60 0 -100.5 54.5t-40.5 136.5q0 173 130.5 335
t266.5 162q93 0 147 -73.5t54 -202.5q0 -249 -138 -530t-345 -461.5t-390 -180.5q-142 0 -234.5 120t-92.5 309q0 201 80.5 407t209.5 367.5t205 203t222 41.5v-16zM1188 1759q-13 -162 -125 -162q-54 0 -153 61q64 104 92 185q109 -68 186 -84zM830 1763
q-19 -164 -133 -164q-63 0 -144 61q60 97 86 183q121 -75 191 -80z" />
    <glyph glyph-name="Udieresis" unicode="&#xdc;" horiz-adv-x="1556" 
d="M1579 221q-228 -244 -391 -244q-85 0 -159 77t-68 259q-175 -336 -398 -336q-108 0 -173.5 83t-65.5 223q0 151 122 499q103 298 103 396q0 70 -32.5 112.5t-84.5 42.5q-79 0 -153 -93.5t-74 -195.5q0 -90 67 -151q25 -22 25 -37q0 -33 -44 -81t-79 -48q-41 0 -78 59
t-37 129q0 191 138 350.5t301 159.5q128 0 208 -99.5t80 -260.5q0 -189 -118 -520q-82 -229 -82 -309q0 -52 23.5 -81.5t64.5 -29.5q77 0 147 104t111.5 218t100.5 333l87 311q36 124 63 203.5t34.5 90t25 14.5t66.5 10l143 16q31 0 27 -14l-47 -170q-66 -235 -140.5 -557
t-74.5 -410q0 -66 25 -105.5t67 -39.5q47 0 102 41t168 166v-115zM1286 1759q-13 -162 -125 -162q-54 0 -153 61q64 104 92 185q109 -68 186 -84zM928 1763q-19 -164 -133 -164q-63 0 -144 61q60 97 86 183q121 -75 191 -80z" />
    <glyph glyph-name="aacute" unicode="&#xe1;" 
d="M1090 221q-160 -152 -229 -198t-132 -46q-158 0 -149 279q-100 -143 -184.5 -211t-174.5 -68q-88 0 -149.5 82.5t-61.5 202.5q0 150 82.5 286t211.5 220t228 84q125 0 175 -115l204 113h56l-88 -293q-68 -221 -68 -303q0 -86 61 -86q39 0 86 41.5t132 126.5v-115z
M358 166q100 0 188.5 170.5t88.5 314.5q0 56 -25 87.5t-67 31.5q-100 0 -189.5 -170t-89.5 -313q0 -54 26.5 -87.5t67.5 -33.5zM995 1329q-27 -109 -111.5 -192t-261.5 -181l-61 21q149 173 204 328z" />
    <glyph glyph-name="agrave" unicode="&#xe0;" 
d="M1090 221q-160 -152 -229 -198t-132 -46q-158 0 -149 279q-100 -143 -184.5 -211t-174.5 -68q-88 0 -149.5 82.5t-61.5 202.5q0 150 82.5 286t211.5 220t228 84q125 0 175 -115l204 113h56l-88 -293q-68 -221 -68 -303q0 -86 61 -86q39 0 86 41.5t132 126.5v-115z
M358 166q100 0 188.5 170.5t88.5 314.5q0 56 -25 87.5t-67 31.5q-100 0 -189.5 -170t-89.5 -313q0 -54 26.5 -87.5t67.5 -33.5zM606 975l-47 -27q-231 137 -336 350l231 39q26 -172 152 -362z" />
    <glyph glyph-name="acircumflex" unicode="&#xe2;" 
d="M1090 221q-160 -152 -229 -198t-132 -46q-158 0 -149 279q-100 -143 -184.5 -211t-174.5 -68q-88 0 -149.5 82.5t-61.5 202.5q0 150 82.5 286t211.5 220t228 84q125 0 175 -115l204 113h56l-88 -293q-68 -221 -68 -303q0 -86 61 -86q39 0 86 41.5t132 126.5v-115z
M358 166q100 0 188.5 170.5t88.5 314.5q0 56 -25 87.5t-67 31.5q-100 0 -189.5 -170t-89.5 -313q0 -54 26.5 -87.5t67.5 -33.5zM908 993l-8 -39q-149 36 -254 234q-87 -100 -161.5 -148.5t-205.5 -89.5l10 49q184 129 310 334l215 39q0 -157 17 -232.5t77 -146.5z" />
    <glyph glyph-name="adieresis" unicode="&#xe4;" 
d="M1090 221q-160 -152 -229 -198t-132 -46q-158 0 -149 279q-100 -143 -184.5 -211t-174.5 -68q-88 0 -149.5 82.5t-61.5 202.5q0 150 82.5 286t211.5 220t228 84q125 0 175 -115l204 113h56l-88 -293q-68 -221 -68 -303q0 -86 61 -86q39 0 86 41.5t132 126.5v-115z
M358 166q100 0 188.5 170.5t88.5 314.5q0 56 -25 87.5t-67 31.5q-100 0 -189.5 -170t-89.5 -313q0 -54 26.5 -87.5t67.5 -33.5zM948 1182q-13 -162 -125 -162q-54 0 -153 61q64 104 92 185q109 -68 186 -84zM590 1186q-19 -164 -133 -164q-63 0 -144 61q60 97 86 183
q121 -75 191 -80z" />
    <glyph glyph-name="atilde" unicode="&#xe3;" 
d="M1090 221q-160 -152 -229 -198t-132 -46q-158 0 -149 279q-100 -143 -184.5 -211t-174.5 -68q-88 0 -149.5 82.5t-61.5 202.5q0 150 82.5 286t211.5 220t228 84q125 0 175 -115l204 113h56l-88 -293q-68 -221 -68 -303q0 -86 61 -86q39 0 86 41.5t132 126.5v-115z
M358 166q100 0 188.5 170.5t88.5 314.5q0 56 -25 87.5t-67 31.5q-100 0 -189.5 -170t-89.5 -313q0 -54 26.5 -87.5t67.5 -33.5zM957 1180q-48 -99 -101.5 -145t-130.5 -46q-61 0 -141 44t-129 44q-72 0 -110 -71l-56 34q78 195 232 195q65 0 149 -42t117 -42q74 0 113 78z
" />
    <glyph glyph-name="aring" unicode="&#xe5;" 
d="M1090 221q-160 -152 -229 -198t-132 -46q-158 0 -149 279q-100 -143 -184.5 -211t-174.5 -68q-88 0 -149.5 82.5t-61.5 202.5q0 150 82.5 286t211.5 220t228 84q125 0 175 -115l204 113h56l-88 -293q-68 -221 -68 -303q0 -86 61 -86q39 0 86 41.5t132 126.5v-115z
M358 166q100 0 188.5 170.5t88.5 314.5q0 56 -25 87.5t-67 31.5q-100 0 -189.5 -170t-89.5 -313q0 -54 26.5 -87.5t67.5 -33.5zM673 1333q81 0 137 -54t56 -132t-55.5 -133.5t-132.5 -55.5q-78 0 -133.5 55.5t-55.5 133.5q0 75 55 130.5t129 55.5zM678 1032q47 0 81.5 34
t34.5 81q0 46 -34.5 80.5t-79.5 34.5q-48 0 -82.5 -34t-34.5 -81q0 -48 33.5 -81.5t81.5 -33.5z" />
    <glyph glyph-name="ccedilla" unicode="&#xe7;" horiz-adv-x="748" 
d="M770 221q-180 -175 -313 -219l-60 -70q133 -24 133 -147q0 -54 -31 -97.5t-98 -79.5t-135 -45t-170 -9l15 79q208 0 208 121q0 88 -108 92q85 84 123 134q-6 -3 -21 -3q-130 0 -214.5 84.5t-84.5 214.5q0 213 155.5 393.5t336.5 180.5q89 0 145 -49.5t56 -128.5
q0 -28 -10.5 -42t-39.5 -28l-116 -55q-21 -10 -31 -10q-14 0 -14 20q0 8 6 52.5t6 54.5q0 44 -18.5 71t-49.5 27q-73 0 -133.5 -108t-60.5 -246q0 -119 57 -190t152 -71q81 0 152.5 46.5t162.5 142.5v-115z" />
    <glyph glyph-name="eacute" unicode="&#xe9;" horiz-adv-x="748" 
d="M770 221q-127 -125 -228 -184.5t-223 -59.5q-136 0 -219.5 87t-83.5 229q0 212 147 383.5t326 171.5q93 0 149 -48t56 -126q0 -207 -440 -336q40 -195 209 -195q66 0 126 35.5t181 157.5v-115zM246 406q256 72 256 266q0 96 -70 96q-66 0 -126 -100.5t-60 -261.5z
M835 1329q-27 -109 -111.5 -192t-261.5 -181l-61 21q149 173 204 328z" />
    <glyph glyph-name="egrave" unicode="&#xe8;" horiz-adv-x="748" 
d="M770 221q-127 -125 -228 -184.5t-223 -59.5q-136 0 -219.5 87t-83.5 229q0 212 147 383.5t326 171.5q93 0 149 -48t56 -126q0 -207 -440 -336q40 -195 209 -195q66 0 126 35.5t181 157.5v-115zM246 406q256 72 256 266q0 96 -70 96q-66 0 -126 -100.5t-60 -261.5z
M446 975l-47 -27q-231 137 -336 350l231 39q26 -172 152 -362z" />
    <glyph glyph-name="ecircumflex" unicode="&#xea;" horiz-adv-x="748" 
d="M770 221q-127 -125 -228 -184.5t-223 -59.5q-136 0 -219.5 87t-83.5 229q0 212 147 383.5t326 171.5q93 0 149 -48t56 -126q0 -207 -440 -336q40 -195 209 -195q66 0 126 35.5t181 157.5v-115zM246 406q256 72 256 266q0 96 -70 96q-66 0 -126 -100.5t-60 -261.5z
M748 993l-8 -39q-149 36 -254 234q-87 -100 -161.5 -148.5t-205.5 -89.5l10 49q184 129 310 334l215 39q0 -157 17 -232.5t77 -146.5z" />
    <glyph glyph-name="edieresis" unicode="&#xeb;" horiz-adv-x="748" 
d="M770 221q-127 -125 -228 -184.5t-223 -59.5q-136 0 -219.5 87t-83.5 229q0 212 147 383.5t326 171.5q93 0 149 -48t56 -126q0 -207 -440 -336q40 -195 209 -195q66 0 126 35.5t181 157.5v-115zM246 406q256 72 256 266q0 96 -70 96q-66 0 -126 -100.5t-60 -261.5z
M789 1182q-13 -162 -125 -162q-54 0 -153 61q64 104 92 185q109 -68 186 -84zM431 1186q-19 -164 -133 -164q-63 0 -144 61q60 97 86 183q121 -75 191 -80z" />
    <glyph glyph-name="iacute" unicode="&#xed;" horiz-adv-x="492" 
d="M514 221q-239 -246 -350 -246q-64 0 -108 65.5t-44 164.5q0 213 144 590l254 53h12l-100 -313q-62 -194 -62 -277q0 -33 14.5 -53.5t36.5 -20.5q39 0 78.5 29t124.5 123v-115zM708 1329q-27 -109 -111.5 -192t-261.5 -181l-61 21q149 173 204 328z" />
    <glyph glyph-name="igrave" unicode="&#xec;" horiz-adv-x="492" 
d="M514 221q-239 -246 -350 -246q-64 0 -108 65.5t-44 164.5q0 213 144 590l254 53h12l-100 -313q-62 -194 -62 -277q0 -33 14.5 -53.5t36.5 -20.5q39 0 78.5 29t124.5 123v-115zM320 975l-47 -27q-231 137 -336 350l231 39q26 -172 152 -362z" />
    <glyph glyph-name="icircumflex" unicode="&#xee;" horiz-adv-x="492" 
d="M514 221q-239 -246 -350 -246q-64 0 -108 65.5t-44 164.5q0 213 144 590l254 53h12l-100 -313q-62 -194 -62 -277q0 -33 14.5 -53.5t36.5 -20.5q39 0 78.5 29t124.5 123v-115zM621 993l-8 -39q-149 36 -254 234q-87 -100 -161.5 -148.5t-205.5 -89.5l10 49
q184 129 310 334l215 39q0 -157 17 -232.5t77 -146.5z" />
    <glyph glyph-name="idieresis" unicode="&#xef;" horiz-adv-x="492" 
d="M514 221q-239 -246 -350 -246q-64 0 -108 65.5t-44 164.5q0 213 144 590l254 53h12l-100 -313q-62 -194 -62 -277q0 -33 14.5 -53.5t36.5 -20.5q39 0 78.5 29t124.5 123v-115zM682 1182q-13 -162 -125 -162q-54 0 -153 61q64 104 92 185q109 -68 186 -84zM324 1186
q-19 -164 -133 -164q-63 0 -144 61q60 97 86 183q121 -75 191 -80z" />
    <glyph glyph-name="ntilde" unicode="&#xf1;" horiz-adv-x="981" 
d="M1004 221q-231 -244 -396 -244q-67 0 -108 47t-41 126q0 107 88 327q47 118 47 150t-25 32q-14 0 -37 -14q-21 -14 -49 -39q-25 -23 -56 -56q-27 -28 -58 -64l-56 -65q-37 -45 -46 -95q-15 -85 -20 -156q-3 -53 -3 -143l-221 -52q-11 135 -11 201q0 161 37.5 305
t120.5 324l244 47q-77 -207 -101 -326q164 183 260.5 253.5t171.5 70.5q51 0 85 -38.5t34 -96.5q0 -96 -86 -316q-59 -151 -59 -196q0 -60 49 -60q73 0 236 193v-115zM914 1180q-48 -99 -101.5 -145t-130.5 -46q-61 0 -141 44t-129 44q-72 0 -110 -71l-56 34q78 195 232 195
q65 0 149 -42t117 -42q74 0 113 78z" />
    <glyph glyph-name="oacute" unicode="&#xf3;" horiz-adv-x="897" 
d="M920 221q-51 -45 -99 -63.5t-76 -18.5q-72 0 -143 56q-144 -218 -330 -218q-116 0 -188 87t-72 231q0 228 162 391.5t387 163.5q85 0 124.5 -18.5t48.5 -43.5t9 -63q0 -187 -102 -459q51 -47 107 -47q67 0 172 117v-115zM590 780q-15 6 -43 6q-130 0 -203.5 -136
t-73.5 -318q0 -101 32 -157t89 -56q71 0 154 131q-94 118 -94 254q0 160 139 276zM911 1329q-27 -109 -111.5 -192t-261.5 -181l-61 21q149 173 204 328z" />
    <glyph glyph-name="ograve" unicode="&#xf2;" horiz-adv-x="897" 
d="M920 221q-51 -45 -99 -63.5t-76 -18.5q-72 0 -143 56q-144 -218 -330 -218q-116 0 -188 87t-72 231q0 228 162 391.5t387 163.5q85 0 124.5 -18.5t48.5 -43.5t9 -63q0 -187 -102 -459q51 -47 107 -47q67 0 172 117v-115zM590 780q-15 6 -43 6q-130 0 -203.5 -136
t-73.5 -318q0 -101 32 -157t89 -56q71 0 154 131q-94 118 -94 254q0 160 139 276zM522 975l-47 -27q-231 137 -336 350l231 39q26 -172 152 -362z" />
    <glyph glyph-name="ocircumflex" unicode="&#xf4;" horiz-adv-x="897" 
d="M920 221q-51 -45 -99 -63.5t-76 -18.5q-72 0 -143 56q-144 -218 -330 -218q-116 0 -188 87t-72 231q0 228 162 391.5t387 163.5q85 0 124.5 -18.5t48.5 -43.5t9 -63q0 -187 -102 -459q51 -47 107 -47q67 0 172 117v-115zM590 780q-15 6 -43 6q-130 0 -203.5 -136
t-73.5 -318q0 -101 32 -157t89 -56q71 0 154 131q-94 118 -94 254q0 160 139 276zM793 993l-8 -39q-149 36 -254 234q-87 -100 -161.5 -148.5t-205.5 -89.5l10 49q184 129 310 334l215 39q0 -157 17 -232.5t77 -146.5z" />
    <glyph glyph-name="odieresis" unicode="&#xf6;" horiz-adv-x="897" 
d="M920 221q-51 -45 -99 -63.5t-76 -18.5q-72 0 -143 56q-144 -218 -330 -218q-116 0 -188 87t-72 231q0 228 162 391.5t387 163.5q85 0 124.5 -18.5t48.5 -43.5t9 -63q0 -187 -102 -459q51 -47 107 -47q67 0 172 117v-115zM590 780q-15 6 -43 6q-130 0 -203.5 -136
t-73.5 -318q0 -101 32 -157t89 -56q71 0 154 131q-94 118 -94 254q0 160 139 276zM864 1182q-13 -162 -125 -162q-54 0 -153 61q64 104 92 185q109 -68 186 -84zM506 1186q-19 -164 -133 -164q-63 0 -144 61q60 97 86 183q121 -75 191 -80z" />
    <glyph glyph-name="otilde" unicode="&#xf5;" horiz-adv-x="897" 
d="M920 221q-51 -45 -99 -63.5t-76 -18.5q-72 0 -143 56q-144 -218 -330 -218q-116 0 -188 87t-72 231q0 228 162 391.5t387 163.5q85 0 124.5 -18.5t48.5 -43.5t9 -63q0 -187 -102 -459q51 -47 107 -47q67 0 172 117v-115zM590 780q-15 6 -43 6q-130 0 -203.5 -136
t-73.5 -318q0 -101 32 -157t89 -56q71 0 154 131q-94 118 -94 254q0 160 139 276zM842 1180q-48 -99 -101.5 -145t-130.5 -46q-61 0 -141 44t-129 44q-72 0 -110 -71l-56 34q78 195 232 195q65 0 149 -42t117 -42q74 0 113 78z" />
    <glyph glyph-name="uacute" unicode="&#xfa;" 
d="M1090 221q-132 -125 -221 -184.5t-160 -59.5q-79 0 -121.5 63t-42.5 171q-110 -121 -197 -178.5t-170 -57.5q-76 0 -122 63t-46 171q0 208 140 586l266 53q-164 -479 -164 -615q0 -96 72 -96q52 0 129 84.5t96 147.5l131 426l272 55q-94 -301 -129 -423t-35 -171
q0 -94 64 -94q52 0 154 95l84 79v-115zM995 1329q-27 -109 -111.5 -192t-261.5 -181l-61 21q149 173 204 328z" />
    <glyph glyph-name="ugrave" unicode="&#xf9;" 
d="M1090 221q-132 -125 -221 -184.5t-160 -59.5q-79 0 -121.5 63t-42.5 171q-110 -121 -197 -178.5t-170 -57.5q-76 0 -122 63t-46 171q0 208 140 586l266 53q-164 -479 -164 -615q0 -96 72 -96q52 0 129 84.5t96 147.5l131 426l272 55q-94 -301 -129 -423t-35 -171
q0 -94 64 -94q52 0 154 95l84 79v-115zM606 975l-47 -27q-231 137 -336 350l231 39q26 -172 152 -362z" />
    <glyph glyph-name="ucircumflex" unicode="&#xfb;" 
d="M1090 221q-132 -125 -221 -184.5t-160 -59.5q-79 0 -121.5 63t-42.5 171q-110 -121 -197 -178.5t-170 -57.5q-76 0 -122 63t-46 171q0 208 140 586l266 53q-164 -479 -164 -615q0 -96 72 -96q52 0 129 84.5t96 147.5l131 426l272 55q-94 -301 -129 -423t-35 -171
q0 -94 64 -94q52 0 154 95l84 79v-115zM877 993l-8 -39q-149 36 -254 234q-87 -100 -161.5 -148.5t-205.5 -89.5l10 49q184 129 310 334l215 39q0 -157 17 -232.5t77 -146.5z" />
    <glyph glyph-name="udieresis" unicode="&#xfc;" 
d="M1090 221q-132 -125 -221 -184.5t-160 -59.5q-79 0 -121.5 63t-42.5 171q-110 -121 -197 -178.5t-170 -57.5q-76 0 -122 63t-46 171q0 208 140 586l266 53q-164 -479 -164 -615q0 -96 72 -96q52 0 129 84.5t96 147.5l131 426l272 55q-94 -301 -129 -423t-35 -171
q0 -94 64 -94q52 0 154 95l84 79v-115zM948 1182q-13 -162 -125 -162q-54 0 -153 61q64 104 92 185q109 -68 186 -84zM590 1186q-19 -164 -133 -164q-63 0 -144 61q60 97 86 183q121 -75 191 -80z" />
    <glyph glyph-name="dagger" unicode="&#x2020;" horiz-adv-x="1153" 
d="M1143 965q-36 -161 -117 -295q-151 31 -317 104q-135 -470 -234 -1136q-177 -76 -334 -97q30 140 101.5 365t162.5 476.5t138 399.5q-107 -57 -181.5 -82.5t-160.5 -25.5q-40 0 -95 10l89 262q213 -72 378 -74q42 196 52 506q192 14 288 49q-7 -113 -40.5 -209.5
t-133.5 -347.5q157 7 404 95z" />
    <glyph glyph-name="degree" unicode="&#xb0;" horiz-adv-x="819" 
d="M530 1384q143 0 245 -102t102 -244t-102 -244t-245 -102t-244.5 102t-101.5 244q0 143 101.5 244.5t244.5 101.5zM530 825q89 0 152 63t63 150q0 89 -63 152t-152 63q-88 0 -151.5 -63t-63.5 -152q0 -88 63 -150.5t152 -62.5z" />
    <glyph glyph-name="cent" unicode="&#xa2;" horiz-adv-x="748" 
d="M766 221q-215 -245 -438 -245q-25 0 -60 4l-121 -435h-47l125 447q-200 70 -200 293q0 185 125.5 352.5t314.5 210.5l143 510h47l-141 -504q201 -17 201 -184q0 -32 -17.5 -48t-90 -49.5t-87.5 -33.5q-14 0 -14 16q0 8 7 55t7 56q0 52 -33 84l-157 -553q59 -54 133 -54
q148 0 291 164h12v-86zM442 762q-88 -19 -139 -127.5t-51 -216.5q0 -112 41 -178z" />
    <glyph glyph-name="sterling" unicode="&#xa3;" horiz-adv-x="1300" 
d="M457 797q55 328 194.5 478t366.5 150q143 0 204.5 -54.5t61.5 -102.5q0 -35 -73.5 -85t-98.5 -50q-27 0 -33 65q-8 96 -34.5 123t-69.5 27q-76 0 -124.5 -79.5t-76.5 -256.5l-35 -226q23 -6 68 -6q100 0 149.5 17t69.5 37t29 20q24 0 24 -20q0 -26 -38.5 -105.5
t-67.5 -95t-80 -15.5h-188q-45 -174 -177 -352q19 0 180.5 -31.5t196.5 -31.5q149 0 219 125h21l47 -19q-132 -334 -393 -334q-96 0 -238 70q-108 52 -170 61q-124 -131 -246 -131q-50 0 -82 26.5t-32 68.5q0 70 75 124.5t242 69.5q57 148 80 373q-97 0 -142.5 -10
t-78.5 -52q-14 -16 -29 -16q-20 0 -20 21q0 31 37.5 110.5t83.5 93t178 13.5z" />
    <glyph glyph-name="section" unicode="&#xa7;" 
d="M449 852q-82 118 -82 231q0 148 101 245t255 97q125 0 231.5 -57.5t106.5 -87.5q0 -21 -31.5 -102.5t-42.5 -98t-29 -16.5q-19 0 -34 10.5t-15 24.5l15 102q0 72 -53 116t-142 44q-81 0 -135.5 -46t-54.5 -112q0 -105 180 -291q215 -224 215 -415q0 -208 -283 -365
q86 -105 86 -237q0 -150 -102.5 -250.5t-255.5 -100.5q-116 0 -232 59.5t-116 102.5q0 20 36 119.5t62 99.5q20 0 37.5 -11t17.5 -24l-7 -43q-7 -50 -7 -63q0 -72 59.5 -121t149.5 -49q83 0 137.5 45t54.5 113q0 97 -145.5 252t-201.5 254t-56 196q0 107 68 195.5t213 183.5
zM612 186q148 79 148 197q0 50 -31 108.5t-240 296.5q-69 -39 -108 -92.5t-39 -105.5q0 -57 44.5 -121.5t225.5 -282.5z" />
    <glyph glyph-name="bullet" unicode="&#x2022;" horiz-adv-x="717" 
d="M401 963q118 0 201.5 -84.5t83.5 -202.5t-83.5 -202.5t-201.5 -84.5q-117 0 -200.5 84.5t-83.5 202.5t83.5 202.5t200.5 84.5z" />
    <glyph glyph-name="paragraph" unicode="&#xb6;" horiz-adv-x="1106" 
d="M1106 1313q-91 0 -130 -18t-48.5 -57.5t-9.5 -129.5v-1550h-99v1722h-182v-1722h-100v872q-282 5 -409.5 137.5t-127.5 329.5q0 162 75 270t181.5 148.5t411.5 40.5h438v-43z" />
    <glyph glyph-name="germandbls" unicode="&#xdf;" horiz-adv-x="1237" 
d="M408 1264q329 161 456 161q86 0 143.5 -62.5t57.5 -156.5q0 -107 -73.5 -196t-229.5 -193q297 -60 297 -323q0 -180 -158 -348.5t-326 -168.5q-141 0 -215 119q-59 -324 -79 -557q-111 -32 -250 -53q25 240 125 872l-133 -137h-23v90l188 203l50 225q11 52 59 210.5
t111 314.5zM487 715q212 160 296.5 253.5t84.5 192.5q0 65 -31.5 104.5t-82.5 39.5q-103 0 -155.5 -119t-111.5 -471zM362 119q82 80 109 102.5t45 22.5q35 0 41 -72q0 -111 72 -111t132 96t60 214q0 132 -64 213.5t-167 81.5q-32 0 -52.5 -12.5t-80.5 -59.5z" />
    <glyph glyph-name="registered" unicode="&#xae;" horiz-adv-x="1530" 
d="M766 1417q292 0 500.5 -208t208.5 -500t-208.5 -500.5t-500.5 -208.5q-293 0 -502 208t-209 501q0 292 209 500t502 208zM766 88q255 0 436.5 182.5t181.5 438.5q0 255 -181.5 437.5t-436.5 182.5q-256 0 -438.5 -182.5t-182.5 -437.5q0 -256 182.5 -438.5t438.5 -182.5z
M1165 311h-241l-205 369h-47v-199q0 -98 28.5 -116t92.5 -19v-35h-424v35q61 -2 83.5 25t22.5 110v473q0 89 -20.5 109t-69.5 22v35h363q137 0 203 -20t108.5 -75t42.5 -124q0 -154 -178 -207l137 -250q47 -89 104 -98v-35zM672 731q22 -4 55 -4q70 0 115 50t45 128t-40 125
t-175 47v-346z" />
    <glyph glyph-name="copyright" unicode="&#xa9;" horiz-adv-x="1530" 
d="M764 1417q293 0 502 -208t209 -500q0 -293 -209 -501t-502 -208q-292 0 -500.5 208.5t-208.5 500.5t208.5 500t500.5 208zM764 88q256 0 438 182.5t182 438.5q0 255 -182 437.5t-438 182.5q-255 0 -437 -182.5t-182 -437.5q0 -256 182 -438.5t437 -182.5zM1100 872h-39
q-20 102 -86 158.5t-160 56.5q-122 0 -190 -94.5t-68 -267.5q0 -214 77.5 -294.5t176.5 -80.5q149 0 260 139v-71q-121 -127 -317 -127q-186 0 -304 114t-118 293q0 190 125 315.5t315 125.5q87 0 158 -27t86 -27q39 0 45 52h39v-265z" />
    <glyph glyph-name="trademark" unicode="&#x2122;" horiz-adv-x="2048" 
d="M2058 549h-461v35q77 0 96 23.5t19 105.5v506l-319 -670h-25l-317 670v-504q0 -80 17 -105t97 -26v-35h-280v35q73 1 90.5 23t17.5 112v467q0 83 -17.5 109.5t-90.5 23.5v37h366l232 -496l229 496h346v-37q-60 2 -80 -19.5t-20 -115.5v-471q0 -72 15.5 -98.5t84.5 -30.5
v-35zM774 1130h-35q-5 82 -35.5 120t-74 46.5t-121.5 8.5v-588q0 -81 16.5 -107t85.5 -26v-35h-454v35q73 4 87.5 23.5t14.5 113.5v584q-74 0 -116.5 -9t-74 -46.5t-38.5 -119.5h-31v226h776v-226z" />
    <glyph glyph-name="acute" unicode="&#xb4;" horiz-adv-x="682" 
d="M803 1329q-27 -109 -111.5 -192t-261.5 -181l-61 21q149 173 204 328z" />
    <glyph glyph-name="dieresis" unicode="&#xa8;" horiz-adv-x="682" 
d="M817 1182q-13 -162 -125 -162q-54 0 -153 61q64 104 92 185q109 -68 186 -84zM459 1186q-19 -164 -133 -164q-63 0 -144 61q60 97 86 183q121 -75 191 -80z" />
    <glyph glyph-name="notequal" unicode="&#x2260;" horiz-adv-x="1124" 
d="M1106 279h-621l-184 -330l-100 57l151 273h-321v112h385l157 285h-542v112h606l186 336l101 -57l-156 -279h338v-112h-399l-160 -285h559v-112z" />
    <glyph glyph-name="AE" unicode="&#xc6;" horiz-adv-x="1749" 
d="M1772 221q-121 -137 -252 -190.5t-281 -53.5q-358 0 -469 306q-100 -159 -207 -232.5t-198 -73.5q-130 0 -214.5 120.5t-84.5 310.5q0 239 113 487.5t322.5 391.5t491.5 143q142 0 275 -39q102 41 196 41q145 0 219 -61t74 -105q0 -32 -48.5 -96t-76.5 -64q-26 0 -39 82
q-27 166 -133 166q-88 0 -155.5 -96t-67.5 -224q0 -84 49.5 -132t136.5 -48l43 4q13 0 13 -14q0 -28 -18.5 -86t-33.5 -58q-19 0 -55 4.5t-51 4.5q-117 0 -191.5 -81.5t-74.5 -209.5q0 -139 87.5 -226.5t227.5 -87.5q218 0 402 232v-115zM1200 770q-119 57 -173 118t-54 159
q0 155 151 270q-73 37 -166 37q-174 0 -311 -144t-215 -382.5t-78 -407.5q0 -104 45.5 -169t116.5 -65q60 0 118.5 51.5t119 172t105.5 181.5t127.5 110.5t213.5 68.5z" />
    <glyph glyph-name="Oslash" unicode="&#xd8;" horiz-adv-x="1300" 
d="M1315 1397l-70 -90q29 -65 29 -156q0 -250 -138 -530.5t-345.5 -460.5t-391.5 -180q-62 0 -135 28l-63 -84l-47 37l59 80q-147 136 -147 371q0 155 43.5 300.5t142 309.5t184 258.5t154.5 122t172 27.5h20q6 0 6 -5q0 -12 -28 -34q-148 -126 -278 -389t-130 -531
q0 -109 39 -192l363 479q-82 61 -82 170q0 179 130 340.5t271 161.5q83 0 141 -64l48 61zM1165 1303q-28 40 -71 40q-86 0 -162 -131.5t-76 -232.5q0 -36 21 -57zM426 223q59 -65 149 -65q188 0 406.5 343t218.5 654q0 53 -12 76l-250 -334q14 -8 14 -29q0 -44 -36.5 -81
t-94.5 -46z" />
    <glyph glyph-name="infinity" unicode="&#x221e;" horiz-adv-x="1460" 
d="M653 668q71 169 159 222.5t212 53.5q161 0 272 -116.5t111 -301.5q0 -186 -111.5 -303t-238.5 -117q-95 0 -170.5 63t-165.5 224q-117 -233 -324 -233q-149 0 -246.5 104.5t-97.5 263.5q0 157 89 262t218 105q80 0 149 -42t144 -185zM750 465q64 -138 134.5 -201
t176.5 -63q126 0 207.5 91t81.5 234q0 140 -84 240t-199 100q-55 0 -97.5 -21.5t-74.5 -62t-64 -116.5zM614 557l11 33q-96 215 -267 215q-110 0 -179.5 -76.5t-69.5 -198.5q0 -123 66.5 -207.5t162.5 -84.5q82 0 149.5 65t126.5 254z" />
    <glyph glyph-name="plusminus" unicode="&#xb1;" horiz-adv-x="1366" 
d="M1231 758h-471v-467h-158v467h-467v157h467v471h158v-471h471v-157zM1231 -49h-1096v158h1096v-158z" />
    <glyph glyph-name="lessequal" unicode="&#x2264;" horiz-adv-x="1124" 
d="M1077 240l-1018 471v127l1018 471v-127l-887 -408l887 -407v-127zM1077 0h-1018v112h1018v-112z" />
    <glyph glyph-name="greaterequal" unicode="&#x2265;" horiz-adv-x="1124" 
d="M1077 711l-1018 -471v127l887 407l-887 408v127l1018 -471v-127zM1077 0h-1018v112h1018v-112z" />
    <glyph glyph-name="yen" unicode="&#xa5;" horiz-adv-x="1393" 
d="M1368 1415q-343 -181 -508 -610h252l-2 -74h-274l-25 -80h274v-73h-294l-146 -551l-246 -50l183 601h-248v73h266l23 80h-263v74h273q11 57 11 144q0 186 -52 298.5t-150 112.5q-97 0 -171 -73t-74 -152q0 -95 67 -154q25 -22 25 -35q0 -27 -42 -71t-83 -44
q-40 0 -67 55.5t-27 129.5q0 152 118.5 284t257.5 132t220.5 -128t81.5 -357q0 -36 -3 -75q148 366 455 543h168z" />
    <glyph glyph-name="mu" unicode="&#xb5;" horiz-adv-x="1180" 
d="M1087 903l-180 -616q-33 -115 -33 -142q0 -22 16 -39.5t36 -17.5q55 0 112 141l37 -20q-82 -234 -266 -234q-75 0 -120.5 46.5t-45.5 121.5q0 37 6 86q-104 -145 -180 -199.5t-164 -54.5q-102 0 -153 88q-41 -121 -48.5 -265.5t-40.5 -190t-90 -45.5q-41 0 -69.5 30.5
t-28.5 75.5q0 61 76 187.5t98.5 180.5t63.5 193l194 674h256l-162 -557q-32 -104 -32 -151q0 -31 20 -51.5t49 -20.5q70 0 148 98.5t139 308.5l109 373h253z" />
    <glyph glyph-name="partialdiff" unicode="&#x2202;" horiz-adv-x="1012" 
d="M295 1120h-45q131 303 379 303q161 0 263.5 -127t102.5 -376q0 -358 -164.5 -654.5t-427.5 -296.5q-155 0 -246 91t-91 245q0 239 166.5 420.5t383.5 181.5q222 0 312 -190h4q10 144 10 186q0 175 -92.5 276t-253.5 101q-194 0 -301 -160zM911 629q-81 225 -284 225
q-178 0 -286 -190.5t-108 -399.5q0 -108 54 -172.5t143 -64.5q136 0 279.5 162.5t201.5 439.5z" />
    <glyph glyph-name="summation" unicode="&#x2211;" horiz-adv-x="1460" 
d="M1423 238q-32 -125 -54 -240t-34 -219q-63 11 -102.5 16.5t-54.5 5.5h-1031q-20 0 -59 -3t-59 -3l714 815l-710 930q70 -7 123 -10.5t90 -3.5h1018l12 -326h-41q-31 102 -52.5 141t-81.5 66q-30 13 -74.5 20t-104.5 7h-539l559 -734l-602 -694h760q127 0 177.5 52
t98.5 180h47z" />
    <glyph glyph-name="product" unicode="&#x220f;" horiz-adv-x="1686" 
d="M1645 -207h-629v47q120 0 159.5 41t39.5 125v1419h-734v-1419q0 -84 39.5 -125t159.5 -41v-47h-629v47q122 0 160.5 41t38.5 125v1282q0 101 -48.5 152t-146.5 51v47h1586v-47q-98 0 -146.5 -51t-48.5 -152v-1282q0 -84 38.5 -125t160.5 -41v-47z" />
    <glyph glyph-name="pi" unicode="&#x3c0;" horiz-adv-x="1124" 
d="M1085 309q-5 -155 -75.5 -248.5t-167.5 -93.5q-79 0 -138.5 91.5t-59.5 281.5q0 42 2 80t5 72l35 329h-231q-60 -624 -98.5 -742.5t-130.5 -118.5q-39 0 -74 31t-35 82q0 46 72.5 128.5t80.5 150.5l60 469h-97q-40 0 -78.5 -19.5t-56.5 -45.5l-43 -64h-35
q49 152 120.5 228.5t164.5 76.5h764v-176h-258q-12 -120 -18.5 -240t-6.5 -241q0 -82 38 -133t95 -51q35 0 73.5 28.5t43.5 74.5q3 22 4.5 34.5t1.5 15.5h43z" />
    <glyph glyph-name="integral" unicode="&#x222b;" horiz-adv-x="561" 
d="M602 1760q0 -39 -29.5 -64t-75.5 -25q-37 0 -60 25t-44 25q-18 0 -27.5 -14.5t-9.5 -43.5q0 -34 19.5 -256t19.5 -551q0 -505 -30 -709.5t-79 -282.5q-26 -41 -67.5 -62t-85.5 -21q-49 0 -86 35t-37 85q0 38 25.5 65t64.5 27q34 0 65.5 -33t44.5 -33q25 0 39.5 44.5
t14.5 153.5q0 37 -6 197t-6 562q0 481 17 638.5t41 215.5q29 70 69 104t84 34q57 0 98 -32.5t41 -83.5z" />
    <glyph glyph-name="ordfeminine" unicode="&#xaa;" horiz-adv-x="725" 
d="M850 997q-164 -168 -244 -168q-48 0 -75 42t-27 151q-69 -99 -126.5 -146t-117.5 -47t-102.5 58t-42.5 141q0 148 121.5 272.5t230.5 124.5q94 0 123 -77l139 77h39q-104 -316 -104 -409q0 -58 41 -58q31 0 72 41t73 70v-72zM352 958q69 0 130 117t61 211q0 38 -18 62
t-46 24q-70 0 -130 -117t-60 -211q0 -36 18.5 -61t44.5 -25z" />
    <glyph glyph-name="ordmasculine" unicode="&#xba;" horiz-adv-x="618" 
d="M735 997q-48 -55 -110 -55q-45 0 -105 35q-101 -148 -225 -148q-81 0 -129.5 59t-48.5 159q0 154 108.5 266t257.5 112q88 0 109.5 -22.5t21.5 -67.5q0 -142 -71 -309q39 -33 80 -33q62 0 112 78v-74zM508 1380q-107 8 -161 -83t-54 -228q0 -67 22 -105t60 -38
q51 0 102 88q-61 92 -61 174q0 59 21.5 101.5t70.5 90.5z" />
    <glyph glyph-name="Ohm" unicode="&#x2126;" horiz-adv-x="1573" 
d="M1506 0h-604l33 311q161 59 226 200t65 313q0 227 -107 373t-331 146t-331 -146t-107 -373q0 -172 65 -313t226 -200l33 -311h-604v332h30q16 -66 40 -95.5t96 -29.5h323l-4 57q-238 65 -341 221t-103 332q0 259 192 425.5t485 166.5t485 -166.5t192 -425.5
q0 -176 -103 -332t-341 -221l-4 -57h323q72 0 96 29.5t40 95.5h30v-332z" />
    <glyph glyph-name="ae" unicode="&#xe6;" horiz-adv-x="1237" 
d="M1260 221q-125 -125 -230.5 -184.5t-218.5 -59.5q-114 0 -204 79t-89 231q-182 -310 -373 -310q-85 0 -144.5 78.5t-59.5 192.5q0 142 79.5 283.5t203 231t225.5 89.5q114 0 157 -145l213 145h45l-28 -98q112 98 215 98q63 0 105 -45.5t42 -114.5q0 -110 -111 -208.5
t-337 -143.5q36 -193 213 -193q73 0 134.5 39t162.5 150v-115zM287 164q98 0 174 166t76 311q0 117 -78 117q-87 0 -178 -162.5t-91 -314.5q0 -52 27 -84.5t70 -32.5zM750 401q132 27 196 111t64 164q0 34 -16 56t-42 22q-138 0 -202 -353z" />
    <glyph glyph-name="oslash" unicode="&#xf8;" horiz-adv-x="897" 
d="M920 221q-51 -45 -99 -63.5t-76 -18.5q-72 0 -143 56q-141 -218 -336 -218q-62 0 -119 31l-88 -114l-36 24l86 117q-55 52 -79 108t-24 144q0 244 167 403.5t370 159.5q85 0 153 -27l66 86l35 -26l-66 -90q8 -42 8 -66q0 -195 -98 -461q51 -47 107 -47q67 0 172 117v-115
zM584 780q-15 6 -43 6q-129 0 -204 -140.5t-75 -328.5q0 -14 8 -65l176 235q0 90 26 155t112 138zM541 246q-67 83 -84 176l-172 -227q43 -80 102 -80q73 0 154 131z" />
    <glyph glyph-name="questiondown" unicode="&#xbf;" horiz-adv-x="897" 
d="M477 1192q52 146 91 189.5t116 43.5q61 0 111.5 -28t50.5 -39q0 -8 -12 -27q-47 -75 -89 -205q-71 82 -172 82q-33 0 -58.5 -10t-37.5 -6zM725 520q34 0 62 -47.5t28 -107.5q0 -148 -137.5 -268t-310.5 -120q-145 0 -234.5 89t-89.5 233q0 268 381 498q83 50 119.5 88
t36.5 78q0 3 -2.5 16t-2.5 16q0 19 29 19q20 0 37.5 -49.5t17.5 -85.5q0 -52 -30.5 -95t-127.5 -117t-149.5 -159.5t-52.5 -190.5q0 -101 50 -162t132 -61q84 0 137.5 50.5t53.5 129.5q0 102 -82 111q-35 3 -35 21q0 23 69 68.5t101 45.5z" />
    <glyph glyph-name="exclamdown" unicode="&#xa1;" horiz-adv-x="662" 
d="M272 1192q56 160 94 196.5t97 36.5q58 0 117 -28.5t59 -38.5q0 -8 -12 -21q-55 -85 -86 -211q-83 84 -168 84q-36 0 -62.5 -11t-38.5 -7zM373 1018q63 -83 63 -203q0 -86 -71.5 -270.5t-71.5 -296.5q0 -79 10 -115.5t10 -44.5q0 -17 -20 -29t-103.5 -47t-99.5 -35
q-18 0 -34.5 60t-16.5 131q0 195 154 436q100 156 124.5 215t24.5 101q0 24 -4 77z" />
    <glyph glyph-name="logicalnot" unicode="&#xac;" horiz-adv-x="1366" 
d="M1231 229h-158v488h-938v157h1096v-645z" />
    <glyph glyph-name="radical" unicode="&#x221a;" horiz-adv-x="1124" 
d="M1055 1868l-307 -1946l-498 1028l-197 -96l-33 68l299 147l404 -825l260 1634z" />
    <glyph glyph-name="florin" unicode="&#x192;" horiz-adv-x="1024" 
d="M311 905q107 0 154.5 46t97.5 180t121.5 196t177.5 62q74 0 118 -35.5t44 -93.5q0 -50 -30.5 -82.5t-75.5 -32.5q-37 0 -63 24.5t-26 57.5q0 21 15.5 55.5t15.5 36.5q0 22 -26 22q-42 0 -68.5 -38.5t-26.5 -100.5l9 -174q0 -52 -13 -123h154l-25 -121h-153l-101 -499
q-29 -144 -66.5 -290t-96.5 -244t-134.5 -145.5t-156.5 -47.5q-66 0 -111 34t-45 82q0 40 30 69.5t72 29.5t67.5 -21.5t25.5 -56.5q0 -4 -6.5 -26.5t-6.5 -26.5q0 -23 29 -23q34 0 55 34.5t21 92.5l-8 188q0 111 40 314l109 536h-141z" />
    <glyph glyph-name="approxequal" unicode="&#x2248;" horiz-adv-x="1124" 
d="M1022 874h51q-21 -155 -95.5 -238t-186.5 -83q-97 0 -304 117q-139 78 -211 78q-149 0 -178 -187h-47q20 154 93.5 238t181.5 84q47 0 107 -19.5t224 -107.5q118 -62 193 -62q144 0 172 180zM1022 487h51q-21 -155 -95.5 -238t-186.5 -83q-96 0 -268.5 97t-246.5 97
q-149 0 -178 -186h-47q20 153 93.5 236.5t181.5 83.5q47 0 112 -21.5t219 -103.5q118 -62 193 -62q144 0 172 180z" />
    <glyph glyph-name="Delta" unicode="&#x2206;" horiz-adv-x="1253" 
d="M668 1409l577 -1409h-1233zM594 1059l-447 -959h844z" />
    <glyph glyph-name="guillemotleft" unicode="&#xab;" horiz-adv-x="897" 
d="M717 903q64 -16 114 -53.5t50 -44.5q0 -14 -130 -157t-130 -183q0 -38 52 -180t52 -146q0 -16 -79 -46t-89 -30q-8 0 -20 39l-117 359q-4 20 -4 28q0 33 104 172.5t197 241.5zM348 903q17 0 87.5 -41t70.5 -55q0 -9 -28 -44.5t-74.5 -78.5t-101 -119t-54.5 -104
q0 -34 51 -175.5t51 -148.5q0 -18 -76 -44.5t-90 -26.5q-12 0 -77.5 205t-65.5 223q0 34 148.5 221.5t158.5 187.5z" />
    <glyph glyph-name="guillemotright" unicode="&#xbb;" horiz-adv-x="897" 
d="M737 903q20 0 84 -197.5t64 -240.5q0 -35 -129.5 -185.5t-167.5 -207.5q-6 -9 -13 -9q-14 0 -87.5 43t-73.5 50q0 8 133 155.5t133 192.5q0 47 -53.5 178t-53.5 154q0 7 72.5 37t91.5 30zM362 903q24 0 86 -191t62 -229q0 -27 -31 -77t-134.5 -170.5t-121.5 -146.5
t-24 -26q-20 0 -89 45.5t-69 53.5q0 10 99.5 123t130 153.5t30.5 71.5q0 27 -23 102.5t-51 138t-28 83.5q0 7 69 38t94 31z" />
    <glyph glyph-name="ellipsis" unicode="&#x2026;" horiz-adv-x="2048" 
d="M1888 209q-44 -142 -81 -187t-109 -45q-89 0 -176 64q57 86 100 235q62 -52 93 -67.5t73 -15.5q37 0 100 16zM1206 209q-44 -142 -81 -187t-109 -45q-89 0 -176 64q55 83 102 235q60 -52 90.5 -67.5t73.5 -15.5q37 0 100 16zM524 209q-44 -143 -80.5 -187.5t-109.5 -44.5
q-90 0 -174 64q53 82 100 235q64 -54 94 -68.5t72 -14.5q36 0 98 16z" />
    <glyph glyph-name="nonbreakingspace" unicode="&#xa0;" horiz-adv-x="512" 
 />
    <glyph glyph-name="Agrave" unicode="&#xc0;" horiz-adv-x="1386" 
d="M1409 221q-230 -246 -422 -246q-106 0 -168 75t-69 214q-121 -147 -214.5 -218t-199.5 -71q-136 0 -218.5 117.5t-82.5 313.5q0 234 108 482.5t320 392.5t514 144q226 0 409 -61v-66q-149 -174 -249.5 -487t-100.5 -477q0 -80 32.5 -124t90.5 -44q104 0 250 170v-115z
M1118 1298q-92 50 -198 50q-167 0 -301 -139.5t-211.5 -369.5t-77.5 -399q0 -113 43.5 -183.5t111.5 -70.5q118 0 271 215q63 564 362 897zM909 1553l-47 -27q-231 137 -336 350l231 39q26 -172 152 -362z" />
    <glyph glyph-name="Atilde" unicode="&#xc3;" horiz-adv-x="1386" 
d="M1409 221q-230 -246 -422 -246q-106 0 -168 75t-69 214q-121 -147 -214.5 -218t-199.5 -71q-136 0 -218.5 117.5t-82.5 313.5q0 234 108 482.5t320 392.5t514 144q226 0 409 -61v-66q-149 -174 -249.5 -487t-100.5 -477q0 -80 32.5 -124t90.5 -44q104 0 250 170v-115z
M1118 1298q-92 50 -198 50q-167 0 -301 -139.5t-211.5 -369.5t-77.5 -399q0 -113 43.5 -183.5t111.5 -70.5q118 0 271 215q63 564 362 897zM1270 1758q-48 -99 -101.5 -145t-130.5 -46q-61 0 -141 44t-129 44q-72 0 -110 -71l-56 34q78 195 232 195q65 0 149 -42t117 -42
q74 0 113 78z" />
    <glyph glyph-name="Otilde" unicode="&#xd5;" horiz-adv-x="1300" 
d="M791 1409q-227 -217 -330 -462.5t-103 -473.5q0 -146 58 -230.5t157 -84.5q198 0 412.5 346.5t214.5 642.5q0 88 -28.5 140t-75.5 52q-87 0 -161.5 -131t-74.5 -233q0 -73 68 -82q28 -3 28 -27q0 -44 -45 -86.5t-94 -42.5q-60 0 -100.5 54.5t-40.5 136.5q0 173 130.5 335
t266.5 162q93 0 147 -73.5t54 -202.5q0 -249 -138 -530t-345 -461.5t-390 -180.5q-142 0 -234.5 120t-92.5 309q0 201 80.5 407t209.5 367.5t205 203t222 41.5v-16zM1237 1758q-48 -99 -101.5 -145t-130.5 -46q-61 0 -141 44t-129 44q-72 0 -110 -71l-56 34q78 195 232 195
q65 0 149 -42t117 -42q74 0 113 78z" />
    <glyph glyph-name="OE" unicode="&#x152;" horiz-adv-x="2134" 
d="M2157 221q-130 -140 -252 -190.5t-277 -50.5q-234 0 -357.5 107.5t-123.5 260.5q0 135 104 258t336 168q-144 46 -203 172q-93 -85 -204 -143q-123 -379 -357.5 -601t-427.5 -222q-143 0 -232 115t-89 304q0 207 79 412t214 371.5t220.5 203.5t162.5 37q36 0 36 -12
q0 -13 -38 -45q-178 -158 -286 -417.5t-108 -479.5q0 -147 55.5 -231t149.5 -84q129 0 278 172t248 436q-83 -33 -159 -33q-98 0 -162 66t-64 168q0 167 119 313.5t252 146.5q85 0 132.5 -67.5t47.5 -188.5q0 -103 -37 -247q57 33 156 120q2 184 169 283.5t327 99.5
q115 0 191.5 -57.5t76.5 -105.5q0 -30 -53 -95t-76 -65q-28 0 -31 74q-3 161 -129 161q-83 0 -149 -90.5t-66 -210.5q0 -88 43.5 -140t163.5 -52q21 0 26 -4t5 -15q0 -25 -16 -75t-29 -50l-127 9q-105 0 -182.5 -89.5t-77.5 -211.5q0 -132 89 -217t228 -85q214 0 404 232
v-115zM1124 870q54 211 54 304q0 165 -101 165q-78 0 -136 -117.5t-58 -222.5q0 -70 38.5 -115.5t96.5 -45.5q55 0 106 32z" />
    <glyph glyph-name="oe" unicode="&#x153;" horiz-adv-x="1237" 
d="M1262 223q-264 -248 -471 -248q-157 0 -248 144q-131 -144 -262 -144q-118 0 -193.5 89t-75.5 229q0 232 161.5 395.5t389.5 163.5q172 0 176 -86q124 88 230 88q91 0 149 -49t58 -125q0 -221 -435 -338q38 -192 201 -192q79 0 153.5 46t166.5 142v-115zM600 782
q-31 6 -55 6q-130 0 -202.5 -135t-72.5 -317q0 -104 32.5 -161.5t88.5 -57.5q50 0 127 86q-2 15 -2 32q0 50 19 123q-89 43 -89 150q0 161 154 274zM737 408q248 78 248 268q0 94 -72 94q-56 0 -111 -100.5t-65 -261.5z" />
    <glyph glyph-name="endash" unicode="&#x2013;" horiz-adv-x="1024" 
d="M1034 422h-1044v182h1044v-182z" />
    <glyph glyph-name="emdash" unicode="&#x2014;" horiz-adv-x="2048" 
d="M2058 422h-2068v182h2068v-182z" />
    <glyph glyph-name="quotedblleft" unicode="&#x201c;" horiz-adv-x="981" 
d="M961 1370q-113 -60 -168.5 -111.5t-55.5 -121.5q0 -87 107 -127q26 -10 26 -19q0 -14 -41.5 -55.5t-119.5 -138.5q-160 92 -160 223q0 137 110.5 245t288.5 165zM469 1368q-113 -58 -168 -109.5t-55 -121.5q0 -87 106 -129q27 -10 27 -17q0 -14 -50.5 -65.5
t-111.5 -130.5q-162 96 -162 225q0 138 111.5 246.5t290.5 163.5z" />
    <glyph glyph-name="quotedblright" unicode="&#x201d;" horiz-adv-x="981" 
d="M791 1430q163 -85 163 -240q0 -116 -99 -222t-302 -175l-12 65q116 56 170.5 109t54.5 120q0 43 -33 78t-67.5 44t-34.5 28q0 4 40.5 48t119.5 145zM297 1430q86 -45 126 -99.5t40 -138.5q0 -263 -402 -404l-10 66q115 56 169 109t54 122q0 41 -31 77t-77 48
q-27 9 -27 25q0 1 48 57t110 138z" />
    <glyph glyph-name="quoteleft" unicode="&#x2018;" horiz-adv-x="492" 
d="M463 1364q-223 -108 -223 -227q0 -92 110 -131q23 -10 23 -17q0 -9 -47.5 -60t-112.5 -136q-164 86 -164 237q0 118 108 230.5t294 169.5z" />
    <glyph glyph-name="quoteright" unicode="&#x2019;" horiz-adv-x="492" 
d="M303 1430q160 -84 160 -236q0 -126 -101.5 -229t-298.5 -172l-14 61q114 62 169.5 112.5t55.5 120.5q0 89 -102 125q-31 10 -31 21q0 9 35 47q88 94 127 150z" />
    <glyph glyph-name="divide" unicode="&#xf7;" horiz-adv-x="1368" 
d="M684 1059q41 0 69.5 -28.5t28.5 -69.5t-28.5 -70t-69.5 -29t-69.5 30t-28.5 73q0 38 29 66t69 28zM1233 467h-1098v158h1098v-158zM684 229q41 0 69.5 -28.5t28.5 -69.5q0 -40 -28.5 -69t-69.5 -29t-70.5 29t-29.5 69q0 41 29 69.5t71 28.5z" />
    <glyph glyph-name="lozenge" unicode="&#x25ca;" horiz-adv-x="1012" 
d="M962 763l-397 -763h-122l-397 763l397 763h122zM839 763l-335 652l-335 -652l335 -652z" />
    <glyph glyph-name="ydieresis" unicode="&#xff;" 
d="M1090 221q-127 -123 -406 -252q-93 -264 -209 -373.5t-242 -109.5q-64 0 -102.5 39t-38.5 104q0 197 361 357l61 215q-189 -211 -332 -211q-77 0 -124.5 63t-47.5 168q0 151 66 324l96 254l291 51l-125 -297q-86 -215 -86 -324q0 -90 61 -90q62 0 141.5 100t133.5 246
l114 314l273 51l-260 -782q229 105 375 268v-115zM424 -113q-123 -55 -189.5 -123.5t-66.5 -134.5q0 -67 57 -67q111 0 199 325zM948 1182q-13 -162 -125 -162q-54 0 -153 61q64 104 92 185q109 -68 186 -84zM590 1186q-19 -164 -133 -164q-63 0 -144 61q60 97 86 183
q121 -75 191 -80z" />
    <glyph glyph-name="Ydieresis" unicode="&#x178;" horiz-adv-x="1556" 
d="M1579 221q-100 -124 -367 -207q-95 -272 -233 -401t-287 -129q-76 0 -122 41.5t-46 109.5q0 215 424 363l23 94q99 403 123 481l57 191q-11 -21 -47 -101q-173 -388 -308 -530.5t-266 -142.5q-100 0 -162.5 78t-62.5 204q0 158 112.5 482t112.5 432q0 66 -34.5 109.5
t-87.5 43.5q-82 0 -154 -91t-72 -195q0 -95 68 -154q24 -22 24 -35q0 -30 -39.5 -82.5t-78.5 -52.5q-42 0 -80.5 59t-38.5 125q0 177 130 348t310 171q128 0 209.5 -100.5t81.5 -260.5q0 -192 -123 -532q-84 -235 -84 -332q0 -90 66 -90q122 0 312 366.5t343 882.5
q7 26 24.5 34t120 20t109.5 12q26 0 23 -15l-54 -217l-155 -678q-32 -140 -107 -413q206 65 336 227v-115zM924 -90q-150 -51 -237 -125.5t-87 -140.5q0 -37 26 -61.5t64 -24.5q75 0 129.5 86t104.5 266zM1327 1759q-13 -162 -125 -162q-54 0 -153 61q64 104 92 185
q109 -68 186 -84zM969 1763q-19 -164 -133 -164q-63 0 -144 61q60 97 86 183q121 -75 191 -80z" />
    <glyph glyph-name="fraction" unicode="&#x2215;" horiz-adv-x="170" 
d="M594 1423l-885 -1661h-104l889 1661h100z" />
    <glyph glyph-name="currency" unicode="&#xa4;" horiz-adv-x="1409" 
d="M1184 274l-107 -106l-127 127q-126 -86 -264 -86q-140 0 -268 86l-127 -127l-107 106l127 127q-84 121 -84 267q0 143 84 266l-127 127l105 106l129 -129q128 86 266 86t266 -86l127 129l107 -106l-129 -129q86 -124 86 -266q0 -141 -86 -265zM684 358q127 0 217 91.5
t90 218.5q0 125 -90.5 216t-216.5 91t-216.5 -91t-90.5 -216q0 -127 90 -218.5t217 -91.5z" />
    <glyph glyph-name="guilsinglleft" unicode="&#x2039;" horiz-adv-x="575" 
d="M334 860q34 43 43 43q14 0 84.5 -44.5t70.5 -55.5q0 -3 -20 -27l-178 -211q-60 -70 -60 -102q0 -34 19 -86l63 -180q0 -1 9.5 -28t9.5 -30q0 -14 -23 -22l-108 -41q-28 -13 -33 -13q-14 0 -43 84l-64 185q-36 102 -36 153q0 47 133 211z" />
    <glyph glyph-name="guilsinglright" unicode="&#x203a;" horiz-adv-x="575" 
d="M238 76q-3 -3 -6.5 -8t-6.5 -5q-23 0 -90 45t-67 54q0 3 68 80t119 139.5t62 83t11 43.5q0 62 -68 221q-35 80 -35 105q0 5 67.5 37t96.5 32q7 0 19 -26t68 -195t56 -207q0 -39 -45 -94z" />
    <glyph glyph-name="fi" unicode="&#xf001;" horiz-adv-x="1153" 
d="M1176 221q-119 -120 -202.5 -180.5t-156.5 -60.5q-135 0 -141 272q-118 -165 -170.5 -217.5t-97.5 -52.5q-30 0 -70 24q-37 -191 -72 -471l-246 -49q7 201 103 707l-41 83l-59 -55h-23v90l182 176q74 361 136.5 538.5t144.5 334.5q203 67 242 67t65.5 -51t26.5 -131
q0 -166 -81 -306.5t-253 -291.5l-82 -403q47 -97 90 -97q32 0 64 35.5t159 206.5q39 167 125 406q247 57 268 57l-102 -309q-59 -178 -59 -277q0 -38 16.5 -62t42.5 -24q33 0 69.5 31t121.5 125v-115zM492 776q107 96 168 218t61 229q0 106 -49 106q-37 0 -79 -117t-77 -305
zM1155 1239q-3 -238 -178 -238q-89 0 -148 50q57 84 93 198q76 -49 127 -49q53 0 106 39z" />
    <glyph glyph-name="fl" unicode="&#xf002;" horiz-adv-x="1300" 
d="M1323 221q-252 -241 -430 -241q-201 0 -238 239q-87 -122 -151 -180.5t-119 -58.5q-25 0 -68 32q-35 -254 -45 -485q-183 -30 -247 -39q29 454 75 711l-39 73l-38 -51h-23v90l154 164q86 510 288 885q189 67 238 67q44 0 71 -50t27 -134q0 -157 -83.5 -300.5
t-260.5 -301.5l-74 -383q52 -119 107 -119q72 0 186 180q10 205 78 434.5t230 573.5l118 51q107 47 150 47q27 0 47 -52t20 -128q0 -369 -387 -784q-8 -106 -8 -119q0 -97 37 -154t98 -57t127.5 50t159.5 155v-115zM471 780q106 96 167.5 221t61.5 232q0 96 -51 96
q-79 0 -178 -549zM940 616q131 143 206 310t75 307q0 76 -29 76q-91 0 -252 -693z" />
    <glyph glyph-name="daggerdbl" unicode="&#x2021;" horiz-adv-x="1300" 
d="M1303 1024q-33 -158 -115 -293q-131 18 -328 113q-49 -175 -49 -279q0 -25 6 -71q-118 -127 -170 -388q209 115 338 115q53 0 113 -16l-90 -258q-147 51 -218.5 65t-158.5 13q-22 -224 -19 -424q-139 -51 -293 -58q6 96 30.5 175t119.5 317q-192 -20 -399 -88
q17 124 120 291q125 -27 312 -111q49 147 49 248q0 48 -10 114q117 137 172 349q-192 -99 -338 -99q-65 0 -101 9l88 258q267 -75 373 -72q38 256 37 444q160 4 291 45q-12 -89 -38 -178.5t-126 -310.5q176 9 404 90z" />
    <glyph glyph-name="periodcentered" unicode="&#xb7;" horiz-adv-x="406" 
d="M383 782q-44 -142 -81.5 -186.5t-111.5 -44.5q-86 0 -174 63q51 76 101 234q64 -53 94.5 -67.5t71.5 -14.5q35 0 100 16z" />
    <glyph glyph-name="periodcentered" unicode="&#x2219;" horiz-adv-x="406" 
d="M383 782q-44 -142 -81.5 -186.5t-111.5 -44.5q-86 0 -174 63q51 76 101 234q64 -53 94.5 -67.5t71.5 -14.5q35 0 100 16z" />
    <glyph glyph-name="quotesinglbase" unicode="&#x201a;" horiz-adv-x="492" 
d="M297 295q84 -51 123 -105.5t39 -130.5q0 -249 -393 -411l-21 61q116 71 170.5 123t54.5 119q0 87 -100 127q-35 12 -35 24q0 10 42 48t120 145z" />
    <glyph glyph-name="quotedblbase" unicode="&#x201e;" horiz-adv-x="981" 
d="M311 295q79 -52 115.5 -106.5t36.5 -131.5q0 -255 -402 -403l-12 63q111 60 168 110.5t57 119.5q0 85 -96 127q-31 15 -31 26q0 3 105 125zM799 289q80 -48 116.5 -100t36.5 -130q0 -256 -399 -411l-12 69q117 57 172 110.5t55 125.5q0 76 -92 117q-39 18 -39 30
q0 9 42.5 53.5t119.5 135.5z" />
    <glyph glyph-name="perthousand" unicode="&#x2030;" horiz-adv-x="2050" 
d="M594 1223q59 -11 117 -11q169 0 415 107.5t281 107.5q33 0 33 -36q0 -13 -6 -23l-1174 -1868h-170l1108 1768q-308 -129 -487 -129q-63 0 -129 10q-35 -187 -119 -274t-189 -87q-89 0 -147.5 64t-58.5 162q0 81 48 190.5t125 168.5t117 59q27 0 27 -29q0 -17 -37 -74
q-112 -170 -112 -323q0 -62 22.5 -100t58.5 -38q45 0 109 75t88 231q-68 46 -68 124q0 53 21.5 93.5t48.5 40.5q78 0 78 -209zM2202 -76q2 -46 -6 -55.5t-35 -9.5q-33 -176 -119.5 -268.5t-186.5 -92.5q-86 0 -144 63t-58 158q0 109 54.5 219t127 157.5t104.5 47.5
q29 0 29 -24q0 -13 -31 -64q-118 -185 -118 -352q0 -58 20 -91.5t55 -33.5q47 0 110.5 76.5t92.5 230.5q-37 22 -52 47t-15 74q0 60 19.5 98.5t49.5 38.5q74 0 74 -209zM1513 -76q3 -46 -5 -55.5t-35 -9.5q-31 -175 -118 -268t-186 -93q-87 0 -145.5 63.5t-58.5 157.5
q0 109 54 219t127 157.5t105 47.5q29 0 29 -24q0 -19 -29 -64q-121 -188 -121 -352q0 -58 20.5 -91.5t55.5 -33.5q47 0 110.5 76.5t92.5 230.5q-37 22 -52.5 47t-15.5 74q0 59 20.5 98t49.5 39q74 0 74 -209z" />
    <glyph glyph-name="Acircumflex" unicode="&#xc2;" horiz-adv-x="1386" 
d="M1409 221q-230 -246 -422 -246q-106 0 -168 75t-69 214q-121 -147 -214.5 -218t-199.5 -71q-136 0 -218.5 117.5t-82.5 313.5q0 234 108 482.5t320 392.5t514 144q226 0 409 -61v-66q-149 -174 -249.5 -487t-100.5 -477q0 -80 32.5 -124t90.5 -44q104 0 250 170v-115z
M1118 1298q-92 50 -198 50q-167 0 -301 -139.5t-211.5 -369.5t-77.5 -399q0 -113 43.5 -183.5t111.5 -70.5q118 0 271 215q63 564 362 897zM1190 1571l-8 -39q-149 36 -254 234q-87 -100 -161.5 -148.5t-205.5 -89.5l10 49q184 129 310 334l215 39q0 -157 17 -232.5
t77 -146.5z" />
    <glyph glyph-name="Ecircumflex" unicode="&#xca;" 
d="M1090 221q-129 -126 -259 -185t-294 -59q-217 0 -347.5 105t-130.5 276q0 149 107 261.5t328 156.5q-213 81 -213 273q0 153 147 264.5t354 111.5q149 0 216 -58.5t67 -106.5q0 -30 -50 -93t-73 -63q-27 0 -39 76q-28 170 -137 170q-85 0 -154 -95t-69 -215
q0 -192 188 -192q31 0 42 -3.5t11 -17.5q0 -38 -15 -83.5t-38 -45.5q-7 0 -50 5.5t-75 5.5q-106 0 -182 -87t-76 -210q0 -133 89 -220.5t225 -87.5q112 0 224 60t204 172v-115zM1030 1571l-8 -39q-149 36 -254 234q-87 -100 -161.5 -148.5t-205.5 -89.5l10 49
q184 129 310 334l215 39q0 -157 17 -232.5t77 -146.5z" />
    <glyph glyph-name="Aacute" unicode="&#xc1;" horiz-adv-x="1386" 
d="M1409 221q-230 -246 -422 -246q-106 0 -168 75t-69 214q-121 -147 -214.5 -218t-199.5 -71q-136 0 -218.5 117.5t-82.5 313.5q0 234 108 482.5t320 392.5t514 144q226 0 409 -61v-66q-149 -174 -249.5 -487t-100.5 -477q0 -80 32.5 -124t90.5 -44q104 0 250 170v-115z
M1118 1298q-92 50 -198 50q-167 0 -301 -139.5t-211.5 -369.5t-77.5 -399q0 -113 43.5 -183.5t111.5 -70.5q118 0 271 215q63 564 362 897zM1288 1907q-27 -109 -111.5 -192t-261.5 -181l-61 21q149 173 204 328z" />
    <glyph glyph-name="Edieresis" unicode="&#xcb;" 
d="M1090 221q-129 -126 -259 -185t-294 -59q-217 0 -347.5 105t-130.5 276q0 149 107 261.5t328 156.5q-213 81 -213 273q0 153 147 264.5t354 111.5q149 0 216 -58.5t67 -106.5q0 -30 -50 -93t-73 -63q-27 0 -39 76q-28 170 -137 170q-85 0 -154 -95t-69 -215
q0 -192 188 -192q31 0 42 -3.5t11 -17.5q0 -38 -15 -83.5t-38 -45.5q-7 0 -50 5.5t-75 5.5q-106 0 -182 -87t-76 -210q0 -133 89 -220.5t225 -87.5q112 0 224 60t204 172v-115zM1041 1759q-13 -162 -125 -162q-54 0 -153 61q64 104 92 185q109 -68 186 -84zM683 1763
q-19 -164 -133 -164q-63 0 -144 61q60 97 86 183q121 -75 191 -80z" />
    <glyph glyph-name="Egrave" unicode="&#xc8;" 
d="M1090 221q-129 -126 -259 -185t-294 -59q-217 0 -347.5 105t-130.5 276q0 149 107 261.5t328 156.5q-213 81 -213 273q0 153 147 264.5t354 111.5q149 0 216 -58.5t67 -106.5q0 -30 -50 -93t-73 -63q-27 0 -39 76q-28 170 -137 170q-85 0 -154 -95t-69 -215
q0 -192 188 -192q31 0 42 -3.5t11 -17.5q0 -38 -15 -83.5t-38 -45.5q-7 0 -50 5.5t-75 5.5q-106 0 -182 -87t-76 -210q0 -133 89 -220.5t225 -87.5q112 0 224 60t204 172v-115zM739 1553l-47 -27q-231 137 -336 350l231 39q26 -172 152 -362z" />
    <glyph glyph-name="Iacute" unicode="&#xcd;" horiz-adv-x="1237" 
d="M1061 1257q-98 -40 -178 -40q-49 0 -112 23.5t-95 23.5q-75 0 -132 -57t-57 -132q0 -67 64 -110q33 -25 33 -43q0 -30 -39 -73.5t-74 -43.5q-40 0 -73 54t-33 122q0 150 144 297t290 147q43 0 112 -24.5t119 -24.5q54 0 103 35q22 14 34 14q15 0 40.5 -15.5t25.5 -33.5
q0 -10 -53 -69q-80 -87 -111 -190.5t-63 -319.5t-70.5 -352.5t-119 -247t-189.5 -165.5t-238 -55q-153 0 -246.5 70.5t-93.5 134.5q0 37 72 99.5t94 62.5q29 0 36 -21t7 -73q0 -88 39.5 -141.5t103.5 -53.5q95 0 161.5 100t108.5 365t113 407t277 330zM1265 1907
q-27 -109 -111.5 -192t-261.5 -181l-61 21q149 173 204 328z" />
    <glyph glyph-name="Icircumflex" unicode="&#xce;" horiz-adv-x="1237" 
d="M1061 1257q-98 -40 -178 -40q-49 0 -112 23.5t-95 23.5q-75 0 -132 -57t-57 -132q0 -67 64 -110q33 -25 33 -43q0 -30 -39 -73.5t-74 -43.5q-40 0 -73 54t-33 122q0 150 144 297t290 147q43 0 112 -24.5t119 -24.5q54 0 103 35q22 14 34 14q15 0 40.5 -15.5t25.5 -33.5
q0 -10 -53 -69q-80 -87 -111 -190.5t-63 -319.5t-70.5 -352.5t-119 -247t-189.5 -165.5t-238 -55q-153 0 -246.5 70.5t-93.5 134.5q0 37 72 99.5t94 62.5q29 0 36 -21t7 -73q0 -88 39.5 -141.5t103.5 -53.5q95 0 161.5 100t108.5 365t113 407t277 330zM1147 1571l-8 -39
q-149 36 -254 234q-87 -100 -161.5 -148.5t-205.5 -89.5l10 49q184 129 310 334l215 39q0 -157 17 -232.5t77 -146.5z" />
    <glyph glyph-name="Idieresis" unicode="&#xcf;" horiz-adv-x="1237" 
d="M1061 1257q-98 -40 -178 -40q-49 0 -112 23.5t-95 23.5q-75 0 -132 -57t-57 -132q0 -67 64 -110q33 -25 33 -43q0 -30 -39 -73.5t-74 -43.5q-40 0 -73 54t-33 122q0 150 144 297t290 147q43 0 112 -24.5t119 -24.5q54 0 103 35q22 14 34 14q15 0 40.5 -15.5t25.5 -33.5
q0 -10 -53 -69q-80 -87 -111 -190.5t-63 -319.5t-70.5 -352.5t-119 -247t-189.5 -165.5t-238 -55q-153 0 -246.5 70.5t-93.5 134.5q0 37 72 99.5t94 62.5q29 0 36 -21t7 -73q0 -88 39.5 -141.5t103.5 -53.5q95 0 161.5 100t108.5 365t113 407t277 330zM1219 1759
q-13 -162 -125 -162q-54 0 -153 61q64 104 92 185q109 -68 186 -84zM861 1763q-19 -164 -133 -164q-63 0 -144 61q60 97 86 183q121 -75 191 -80z" />
    <glyph glyph-name="Igrave" unicode="&#xcc;" horiz-adv-x="1237" 
d="M1061 1257q-98 -40 -178 -40q-49 0 -112 23.5t-95 23.5q-75 0 -132 -57t-57 -132q0 -67 64 -110q33 -25 33 -43q0 -30 -39 -73.5t-74 -43.5q-40 0 -73 54t-33 122q0 150 144 297t290 147q43 0 112 -24.5t119 -24.5q54 0 103 35q22 14 34 14q15 0 40.5 -15.5t25.5 -33.5
q0 -10 -53 -69q-80 -87 -111 -190.5t-63 -319.5t-70.5 -352.5t-119 -247t-189.5 -165.5t-238 -55q-153 0 -246.5 70.5t-93.5 134.5q0 37 72 99.5t94 62.5q29 0 36 -21t7 -73q0 -88 39.5 -141.5t103.5 -53.5q95 0 161.5 100t108.5 365t113 407t277 330zM897 1553l-47 -27
q-231 137 -336 350l231 39q26 -172 152 -362z" />
    <glyph glyph-name="Oacute" unicode="&#xd3;" horiz-adv-x="1300" 
d="M791 1409q-227 -217 -330 -462.5t-103 -473.5q0 -146 58 -230.5t157 -84.5q198 0 412.5 346.5t214.5 642.5q0 88 -28.5 140t-75.5 52q-87 0 -161.5 -131t-74.5 -233q0 -73 68 -82q28 -3 28 -27q0 -44 -45 -86.5t-94 -42.5q-60 0 -100.5 54.5t-40.5 136.5q0 173 130.5 335
t266.5 162q93 0 147 -73.5t54 -202.5q0 -249 -138 -530t-345 -461.5t-390 -180.5q-142 0 -234.5 120t-92.5 309q0 201 80.5 407t209.5 367.5t205 203t222 41.5v-16zM1286 1907q-27 -109 -111.5 -192t-261.5 -181l-61 21q149 173 204 328z" />
    <glyph glyph-name="Ocircumflex" unicode="&#xd4;" horiz-adv-x="1300" 
d="M791 1409q-227 -217 -330 -462.5t-103 -473.5q0 -146 58 -230.5t157 -84.5q198 0 412.5 346.5t214.5 642.5q0 88 -28.5 140t-75.5 52q-87 0 -161.5 -131t-74.5 -233q0 -73 68 -82q28 -3 28 -27q0 -44 -45 -86.5t-94 -42.5q-60 0 -100.5 54.5t-40.5 136.5q0 173 130.5 335
t266.5 162q93 0 147 -73.5t54 -202.5q0 -249 -138 -530t-345 -461.5t-390 -180.5q-142 0 -234.5 120t-92.5 309q0 201 80.5 407t209.5 367.5t205 203t222 41.5v-16zM1157 1571l-8 -39q-149 36 -254 234q-87 -100 -161.5 -148.5t-205.5 -89.5l10 49q184 129 310 334l215 39
q0 -157 17 -232.5t77 -146.5z" />
    <glyph glyph-name="dummy" unicode="&#xf000;" horiz-adv-x="1618" 
 />
    <glyph glyph-name="Ograve" unicode="&#xd2;" horiz-adv-x="1300" 
d="M791 1409q-227 -217 -330 -462.5t-103 -473.5q0 -146 58 -230.5t157 -84.5q198 0 412.5 346.5t214.5 642.5q0 88 -28.5 140t-75.5 52q-87 0 -161.5 -131t-74.5 -233q0 -73 68 -82q28 -3 28 -27q0 -44 -45 -86.5t-94 -42.5q-60 0 -100.5 54.5t-40.5 136.5q0 173 130.5 335
t266.5 162q93 0 147 -73.5t54 -202.5q0 -249 -138 -530t-345 -461.5t-390 -180.5q-142 0 -234.5 120t-92.5 309q0 201 80.5 407t209.5 367.5t205 203t222 41.5v-16zM856 1553l-47 -27q-231 137 -336 350l231 39q26 -172 152 -362z" />
    <glyph glyph-name="Uacute" unicode="&#xda;" horiz-adv-x="1556" 
d="M1579 221q-228 -244 -391 -244q-85 0 -159 77t-68 259q-175 -336 -398 -336q-108 0 -173.5 83t-65.5 223q0 151 122 499q103 298 103 396q0 70 -32.5 112.5t-84.5 42.5q-79 0 -153 -93.5t-74 -195.5q0 -90 67 -151q25 -22 25 -37q0 -33 -44 -81t-79 -48q-41 0 -78 59
t-37 129q0 191 138 350.5t301 159.5q128 0 208 -99.5t80 -260.5q0 -189 -118 -520q-82 -229 -82 -309q0 -52 23.5 -81.5t64.5 -29.5q77 0 147 104t111.5 218t100.5 333l87 311q36 124 63 203.5t34.5 90t25 14.5t66.5 10l143 16q31 0 27 -14l-47 -170q-66 -235 -140.5 -557
t-74.5 -410q0 -66 25 -105.5t67 -39.5q47 0 102 41t168 166v-115zM1374 1907q-27 -109 -111.5 -192t-261.5 -181l-61 21q149 173 204 328z" />
    <glyph glyph-name="Ucircumflex" unicode="&#xdb;" horiz-adv-x="1556" 
d="M1579 221q-228 -244 -391 -244q-85 0 -159 77t-68 259q-175 -336 -398 -336q-108 0 -173.5 83t-65.5 223q0 151 122 499q103 298 103 396q0 70 -32.5 112.5t-84.5 42.5q-79 0 -153 -93.5t-74 -195.5q0 -90 67 -151q25 -22 25 -37q0 -33 -44 -81t-79 -48q-41 0 -78 59
t-37 129q0 191 138 350.5t301 159.5q128 0 208 -99.5t80 -260.5q0 -189 -118 -520q-82 -229 -82 -309q0 -52 23.5 -81.5t64.5 -29.5q77 0 147 104t111.5 218t100.5 333l87 311q36 124 63 203.5t34.5 90t25 14.5t66.5 10l143 16q31 0 27 -14l-47 -170q-66 -235 -140.5 -557
t-74.5 -410q0 -66 25 -105.5t67 -39.5q47 0 102 41t168 166v-115zM1266 1571l-8 -39q-149 36 -254 234q-87 -100 -161.5 -148.5t-205.5 -89.5l10 49q184 129 310 334l215 39q0 -157 17 -232.5t77 -146.5z" />
    <glyph glyph-name="Ugrave" unicode="&#xd9;" horiz-adv-x="1556" 
d="M1579 221q-228 -244 -391 -244q-85 0 -159 77t-68 259q-175 -336 -398 -336q-108 0 -173.5 83t-65.5 223q0 151 122 499q103 298 103 396q0 70 -32.5 112.5t-84.5 42.5q-79 0 -153 -93.5t-74 -195.5q0 -90 67 -151q25 -22 25 -37q0 -33 -44 -81t-79 -48q-41 0 -78 59
t-37 129q0 191 138 350.5t301 159.5q128 0 208 -99.5t80 -260.5q0 -189 -118 -520q-82 -229 -82 -309q0 -52 23.5 -81.5t64.5 -29.5q77 0 147 104t111.5 218t100.5 333l87 311q36 124 63 203.5t34.5 90t25 14.5t66.5 10l143 16q31 0 27 -14l-47 -170q-66 -235 -140.5 -557
t-74.5 -410q0 -66 25 -105.5t67 -39.5q47 0 102 41t168 166v-115zM934 1553l-47 -27q-231 137 -336 350l231 39q26 -172 152 -362z" />
    <glyph glyph-name="dotlessi" unicode="&#x131;" horiz-adv-x="492" 
d="M514 221q-239 -246 -350 -246q-64 0 -108 65.5t-44 164.5q0 213 144 590l254 53h12l-100 -313q-62 -194 -62 -277q0 -33 14.5 -53.5t36.5 -20.5q39 0 78.5 29t124.5 123v-115z" />
    <glyph glyph-name="circumflex" unicode="&#x2c6;" horiz-adv-x="682" 
d="M715 993l-8 -39q-149 36 -254 234q-87 -100 -161.5 -148.5t-205.5 -89.5l10 49q184 129 310 334l215 39q0 -157 17 -232.5t77 -146.5z" />
    <glyph glyph-name="tilde" unicode="&#x2dc;" horiz-adv-x="682" 
d="M764 1180q-48 -99 -101.5 -145t-130.5 -46q-61 0 -141 44t-129 44q-72 0 -110 -71l-56 34q78 195 232 195q65 0 149 -42t117 -42q74 0 113 78z" />
    <glyph glyph-name="macron" unicode="&#x2c9;" horiz-adv-x="682" 
d="M606 1229l-20 -182h-670l21 182h669z" />
    <glyph glyph-name="breve" unicode="&#x2d8;" horiz-adv-x="690" 
d="M839 1212q-115 -157 -182.5 -211.5t-130.5 -54.5q-141 0 -133 217l180 62q1 -73 14.5 -107.5t47.5 -34.5q66 0 202 201z" />
    <glyph glyph-name="dotaccent" unicode="&#x2d9;" horiz-adv-x="682" 
d="M834 1182q-13 -162 -129 -162q-69 0 -152 63q58 94 90 189q113 -73 191 -90z" />
    <glyph glyph-name="ring" unicode="&#x2da;" horiz-adv-x="682" 
d="M573 1333q81 0 137 -54t56 -132t-55.5 -133.5t-132.5 -55.5q-78 0 -133.5 55.5t-55.5 133.5q0 75 55 130.5t129 55.5zM578 1032q47 0 81.5 34t34.5 81q0 46 -34.5 80.5t-79.5 34.5q-48 0 -82.5 -34t-34.5 -81q0 -48 33.5 -81.5t81.5 -33.5z" />
    <glyph glyph-name="cedilla" unicode="&#xb8;" horiz-adv-x="682" 
d="M381 -68q133 -24 133 -147q0 -54 -31 -97.5t-98.5 -79.5t-135.5 -45t-169 -9l14 79q209 0 209 121q0 88 -108 92q76 73 147 162h102z" />
    <glyph glyph-name="hungarumlaut" unicode="&#x2dd;" horiz-adv-x="682" 
d="M1274 1329q-27 -109 -112 -192t-263 -181l-59 21q145 169 202 328zM840 1329q-27 -109 -111.5 -192t-261.5 -181l-61 21q148 173 204 328z" />
    <glyph glyph-name="ogonek" unicode="&#x2db;" horiz-adv-x="682" 
d="M580 -262l-37 -182q-41 -13 -84 -13q-79 0 -124.5 40t-45.5 108q0 67 40.5 127.5t168.5 185.5h69q-87 -91 -118 -133t-31 -80q0 -25 24 -45t54 -20q24 0 84 12z" />
    <glyph glyph-name="caron" unicode="&#x2c7;" horiz-adv-x="682" 
d="M887 1366l-13 -49q-181 -122 -309 -330l-217 -35q5 173 -19.5 248t-72.5 129l10 41q150 -53 252 -233q172 181 369 229z" />
    <glyph glyph-name="Lslash" unicode="&#x141;" horiz-adv-x="1300" 
d="M1323 221q-237 -241 -485 -241q-72 0 -138.5 18.5t-162 62.5t-168.5 64q-135 -148 -244 -148q-38 0 -63 25t-25 61q0 76 74.5 133.5t210.5 79.5q85 106 94 336l-183 -77v83l193 80q16 333 188.5 530t366.5 197q145 0 234.5 -87.5t89.5 -229.5q0 -140 -74 -241t-170 -101
q-59 0 -93 36.5t-34 90.5q0 44 6 61q26 -20 49 -20q47 0 84 70t37 161q0 85 -41 135t-111 50q-178 0 -213 -316l-22 -207l151 64v-82l-165 -70q-53 -281 -226 -456q85 6 147.5 -10t179 -60.5t200.5 -44.5q164 0 313 168v-115z" />
    <glyph glyph-name="lslash" unicode="&#x142;" horiz-adv-x="662" 
d="M684 221q-138 -126 -240 -185t-196 -59q-107 0 -158.5 61.5t-63.5 140t-12 186.5l-188 -76v82l197 78q68 467 301 880l254 94q12 4 18 4q66 0 66 -165q0 -163 -57.5 -314.5t-213.5 -353.5l195 76v-80l-310 -121q-10 -102 -10 -152q0 -81 32.5 -131.5t84.5 -50.5
q56 0 119.5 41.5t181.5 159.5v-115zM301 612q128 141 206.5 315.5t78.5 301.5q0 37 -11 59.5t-28 22.5q-27 0 -92 -142.5t-154 -556.5z" />
    <glyph glyph-name="Scaron" unicode="&#x160;" horiz-adv-x="1153" 
d="M1067 1245q0 -39 -129 -192h-18q-20 8 -25 59q-11 103 -71 168.5t-144 65.5q-79 0 -136 -57.5t-57 -137.5q0 -58 36 -124.5t187.5 -210.5t194.5 -229.5t43 -162.5q0 -178 -154.5 -313.5t-361.5 -135.5q-171 0 -282 79.5t-111 129.5q0 28 61 130t70 102q32 0 45.5 -18.5
t18.5 -68.5q15 -156 75.5 -215t157.5 -59q106 0 185 73.5t79 170.5q0 50 -30.5 106.5t-173 192t-186.5 229.5t-44 183q0 155 117 285t311 130q147 0 244.5 -67.5t97.5 -112.5zM1184 1944l-13 -49q-181 -122 -309 -330l-217 -35q5 173 -19.5 248t-72.5 129l10 41
q150 -53 252 -233q172 181 369 229z" />
    <glyph glyph-name="scaron" unicode="&#x161;" horiz-adv-x="831" 
d="M330 807q69 18 139 29.5t84 11.5q10 0 10 -8q0 -15 -8 -31q-16 -46 -16 -88q0 -52 60 -142t60 -167q0 -153 -146.5 -295t-303.5 -142q-68 0 -124 36t-56 77q0 24 55.5 91t79.5 67q32 0 57 -82t86 -82t114.5 56.5t53.5 121.5q0 63 -68 168t-90 176q-116 -187 -294 -383
h-23v90q245 261 330 496zM901 1366l-13 -49q-181 -122 -309 -330l-217 -35q5 173 -19.5 248t-72.5 129l10 41q150 -53 252 -233q172 181 369 229z" />
    <glyph glyph-name="Zcaron" unicode="&#x17d;" horiz-adv-x="1153" 
d="M1176 221q-132 -126 -245.5 -185t-244.5 -59q-85 0 -214 53.5t-212 53.5q-53 0 -78.5 -16.5t-38.5 -57.5q-11 -33 -32 -33q-47 0 -59.5 4t-12.5 21q0 20 52 127.5t172 262.5t386 437l68 72q192 204 248 293q-68 -35 -156 -35q-75 0 -196.5 27.5t-174.5 27.5
q-78 0 -128 -37.5t-50 -95.5q0 -53 50 -95t50 -66q0 -29 -49 -72t-69 -43q-33 0 -66 50.5t-33 105.5q0 167 148 316.5t313 149.5q43 0 177.5 -27.5t185.5 -27.5q70 0 102.5 26.5t44.5 26.5q37 0 37 -16q0 -49 -46.5 -136.5t-112.5 -171t-314 -353.5t-311 -345t-111 -161
q94 27 129 34t94 7q102 0 245.5 -50.5t211.5 -50.5q63 0 117 38t123 116v-115zM1143 1944l-13 -49q-181 -122 -309 -330l-217 -35q5 173 -19.5 248t-72.5 129l10 41q150 -53 252 -233q172 181 369 229z" />
    <glyph glyph-name="zcaron" unicode="&#x17e;" horiz-adv-x="981" 
d="M1004 221q-136 -150 -204.5 -198t-135.5 -48q-38 0 -139.5 33t-153.5 33q-65 0 -94.5 -33t-38.5 -33q-50 0 -60 1.5t-10 7.5q0 22 171 231l345 420q-58 -12 -125 -12q-90 0 -186 30q-180 -258 -350 -432h-23v90q127 130 244.5 291.5t136.5 203.5t31 42q7 0 92 -13.5
t137 -13.5q94 0 172.5 13.5t91.5 13.5q19 0 19 -10q0 -37 -161 -230l-323 -391q40 4 66 4q19 0 129.5 -22.5t132.5 -22.5q62 0 106.5 33.5t129.5 126.5v-115zM1067 1366l-13 -49q-181 -122 -309 -330l-217 -35q5 173 -19.5 248t-72.5 129l10 41q150 -53 252 -233
q172 181 369 229z" />
    <glyph glyph-name="brokenbar" unicode="&#xa6;" horiz-adv-x="1118" 
d="M639 666h-160v716h160v-716zM639 -358h-160v716h160v-716z" />
    <glyph glyph-name="sfthyphen" unicode="&#xad;" horiz-adv-x="670" 
d="M626 537l-47 -109q-35 -82 -57 -99.5t-86 -17.5l-221 8q-46 0 -80 -26q-15 -10 -25 -10q-30 0 -20 22l55 129q21 50 44 65t102 16h165q90 0 114 20t34 20q30 0 22 -18z" />
    <glyph glyph-name="overscore" unicode="&#xaf;" horiz-adv-x="1024" 
d="M1520 1590h-1060v102h1060v-102z" />
    <glyph glyph-name="Eth" unicode="&#xd0;" horiz-adv-x="1556" 
d="M567 180q34 -13 136 -56.5t169 -43.5q168 0 267.5 217.5t99.5 466.5q0 263 -127.5 423.5t-333.5 160.5q-165 0 -309.5 -118.5t-144.5 -250.5q0 -98 84 -135q36 -17 36 -45t-75.5 -62.5t-98.5 -34.5q-51 0 -90 59.5t-39 131.5q0 191 199.5 362.5t519.5 171.5
q307 0 488.5 -168.5t181.5 -451.5q0 -216 -112 -410t-302.5 -308t-402.5 -114q-182 0 -334 78q-128 -78 -217 -78q-52 0 -88.5 30t-36.5 73q0 70 73 118t183 48q78 0 149 -25q62 47 85.5 122t58.5 335h-129l10 74h133q42 188 150.5 287.5t232.5 115.5l39 -53
q-120 -116 -139 -350h172l-13 -72h-168q-22 -192 -88.5 -301t-218.5 -197z" />
    <glyph glyph-name="eth" unicode="&#xf0;" horiz-adv-x="897" 
d="M797 1255l-150 -100q82 -187 82 -395q0 -301 -139.5 -543t-323.5 -242q-108 0 -182 89t-74 221q0 225 161 395t321 170q51 0 106 -23q-18 128 -82 242l-145 -96l-21 39l144 96q-65 113 -168 192l133 130q105 -111 168 -230l143 94zM391 158q96 0 158.5 157t62.5 297
q0 76 -32.5 120t-87.5 44q-105 0 -166.5 -155.5t-61.5 -301.5q0 -161 127 -161z" />
    <glyph glyph-name="Yacute" unicode="&#xdd;" horiz-adv-x="1556" 
d="M1579 221q-100 -124 -367 -207q-95 -272 -233 -401t-287 -129q-76 0 -122 41.5t-46 109.5q0 215 424 363l23 94q99 403 123 481l57 191q-11 -21 -47 -101q-173 -388 -308 -530.5t-266 -142.5q-100 0 -162.5 78t-62.5 204q0 158 112.5 482t112.5 432q0 66 -34.5 109.5
t-87.5 43.5q-82 0 -154 -91t-72 -195q0 -95 68 -154q24 -22 24 -35q0 -30 -39.5 -82.5t-78.5 -52.5q-42 0 -80.5 59t-38.5 125q0 177 130 348t310 171q128 0 209.5 -100.5t81.5 -260.5q0 -192 -123 -532q-84 -235 -84 -332q0 -90 66 -90q122 0 312 366.5t343 882.5
q7 26 24.5 34t120 20t109.5 12q26 0 23 -15l-54 -217l-155 -678q-32 -140 -107 -413q206 65 336 227v-115zM924 -90q-150 -51 -237 -125.5t-87 -140.5q0 -37 26 -61.5t64 -24.5q75 0 129.5 86t104.5 266zM1351 1905q-27 -109 -111.5 -192t-261.5 -181l-61 21
q149 173 204 328z" />
    <glyph glyph-name="yacute" unicode="&#xfd;" 
d="M1090 221q-127 -123 -406 -252q-93 -264 -209 -373.5t-242 -109.5q-64 0 -102.5 39t-38.5 104q0 197 361 357l61 215q-189 -211 -332 -211q-77 0 -124.5 63t-47.5 168q0 151 66 324l96 254l291 51l-125 -297q-86 -215 -86 -324q0 -90 61 -90q62 0 141.5 100t133.5 246
l114 314l273 51l-260 -782q229 105 375 268v-115zM424 -113q-123 -55 -189.5 -123.5t-66.5 -134.5q0 -67 57 -67q111 0 199 325zM995 1329q-27 -109 -111.5 -192t-261.5 -181l-61 21q149 173 204 328z" />
    <glyph glyph-name="Thorn" unicode="&#xde;" horiz-adv-x="1686" 
d="M1008 1073q79 35 225 35q183 0 280 -112.5t97 -313.5q0 -176 -133 -306t-312 -130q-80 0 -132 29t-52 71q0 33 34 88t60 55q33 0 45 -77q12 -88 58 -88q63 0 110 143.5t47 288.5q0 156 -44.5 208t-135.5 52q-80 0 -158 -33l-26 -266q-36 -369 -217 -552t-424 -183
q-145 0 -218 69.5t-73 153.5q0 49 85.5 102t129.5 53q31 0 31 -38q0 -10 -8.5 -68t-8.5 -70q0 -59 29 -94t78 -35q108 0 187.5 131.5t107.5 362.5l45 375q24 200 105.5 321t271.5 191l59 -56q-54 -41 -94 -130.5t-49 -176.5z" />
    <glyph glyph-name="thorn" unicode="&#xfe;" horiz-adv-x="1153" 
d="M522 707q73 73 126 108t124 35q104 0 170 -76.5t66 -198.5q0 -224 -150 -408.5t-328 -184.5q-85 0 -163 65q-72 -323 -95 -510q-104 -17 -243 -45q32 293 184 957q-98 -145 -190 -228h-23v90q139 148 222 292.5t145 416.5l82 360l256 47zM389 160q43 -101 119 -101
q97 0 173.5 151.5t76.5 311.5q0 72 -31.5 116t-81.5 44q-71 0 -119.5 -72t-83.5 -221z" />
    <glyph glyph-name="minus" unicode="&#x2212;" horiz-adv-x="1366" 
d="M1231 469h-1096v158h1096v-158z" />
    <glyph glyph-name="multiply" unicode="&#xd7;" horiz-adv-x="1368" 
d="M1194 944l-397 -397l393 -393l-111 -111l-393 393l-397 -395l-111 111l395 395l-397 397l111 111l397 -398l397 398z" />
    <glyph glyph-name="onesuperior" unicode="&#xb9;" horiz-adv-x="694" 
d="M268 1137q-32 15 -32 16q0 22 49.5 81.5t110.5 112.5t88.5 64.5t82.5 11.5q27 0 27 -14q0 -11 -6 -35l-131 -506q-64 -250 -90.5 -271.5t-141.5 -21.5q-24 0 -24 11q0 7 5 22l124 375l90 324q-61 -30 -152 -170z" />
    <glyph glyph-name="twosuperior" unicode="&#xb2;" horiz-adv-x="662" 
d="M559 776q-27 -98 -60.5 -146t-123.5 -48q-39 0 -109.5 6t-105.5 6q-34 0 -111 -12q-8 0 -8 14q0 109 195 281q119 106 170 185.5t51 168.5q0 59 -31.5 96t-81.5 37t-85.5 -35t-35.5 -84q0 -39 29 -61t29 -35q0 -16 -44 -36.5t-69 -20.5q-21 0 -37 20.5t-16 48.5
q0 99 92.5 180.5t206.5 81.5q92 0 152.5 -55.5t60.5 -140.5q0 -71 -49 -143t-223.5 -189.5t-221.5 -185.5q69 18 131 18q23 0 79 -5t81 -5q54 0 72 17t32 54z" />
    <glyph glyph-name="threesuperior" unicode="&#xb3;" horiz-adv-x="662" 
d="M635 1241q0 -136 -205 -205q83 -38 121.5 -84.5t38.5 -117.5q0 -113 -90.5 -184.5t-235.5 -71.5q-103 0 -162 43t-59 118q0 43 24 56.5t61.5 23.5t45.5 10q16 0 16 -22q0 -12 -11 -37.5t-11 -56.5q0 -40 31 -67.5t77 -27.5q74 0 114 71t40 151q0 63 -29 103t-73 40
l-43 -4q-17 0 -17 20q0 34 9.5 41t46.5 7q73 0 119 56.5t46 141.5q0 59 -32 94t-86 35q-45 0 -79 -29t-34 -67q0 -4 9 -30t9 -31q0 -17 -39.5 -38.5t-58.5 -21.5q-12 0 -21.5 17t-9.5 38q0 82 82.5 146.5t190.5 64.5q96 0 155.5 -50.5t59.5 -131.5z" />
    <glyph glyph-name="onehalf" unicode="&#xbd;" horiz-adv-x="1518" 
d="M276 1137q-32 15 -32 16q0 22 49.5 81.5t110.5 112.5t88.5 64.5t82.5 11.5q27 0 27 -14q0 -11 -6 -35l-131 -506q-64 -250 -90.5 -271.5t-141.5 -21.5q-24 0 -24 11q0 7 5 22l124 375l90 324q-61 -30 -152 -170zM1266 1423l-885 -1661h-104l889 1661h100zM1415 -56
q-27 -98 -60.5 -146t-123.5 -48q-39 0 -109.5 6t-105.5 6q-34 0 -111 -12q-8 0 -8 14q0 109 195 281q119 106 170 185.5t51 168.5q0 59 -31.5 96t-81.5 37t-85.5 -35t-35.5 -84q0 -39 29 -61t29 -35q0 -16 -44 -36.5t-69 -20.5q-21 0 -37 20.5t-16 48.5q0 99 92.5 180.5
t206.5 81.5q92 0 152.5 -55.5t60.5 -140.5q0 -71 -49 -143t-223.5 -189.5t-221.5 -185.5q69 18 131 18q23 0 79 -5t81 -5q54 0 72 17t32 54z" />
    <glyph glyph-name="onequarter" unicode="&#xbc;" horiz-adv-x="1520" 
d="M276 1137q-32 15 -32 16q0 22 49.5 81.5t110.5 112.5t88.5 64.5t82.5 11.5q27 0 27 -14q0 -11 -6 -35l-131 -506q-64 -250 -90.5 -271.5t-141.5 -21.5q-24 0 -24 11q0 7 5 22l124 375l90 324q-61 -30 -152 -170zM1282 1423l-885 -1661h-104l889 1661h100zM1478 94
l-10 -38q-11 -37 -19 -48.5t-34 -12.5l-105 -4l-45 -151q-12 -41 -23 -57.5t-41.5 -23.5t-100.5 -7q-34 0 -34 12q0 1 3 8l80 223l-166 4q-56 2 -70 4.5t-14 10.5v33q0 19 44 91t115.5 162.5t156.5 173t125.5 103.5t90.5 21q29 0 29 -15q0 -35 -123 -489q78 3 107 10l18 4
q16 0 16 -12v-2zM1296 487q-61 -42 -164 -162t-174 -248l215 4q55 157 123 406z" />
    <glyph glyph-name="threequarters" unicode="&#xbe;" horiz-adv-x="1495" 
d="M643 1241q0 -136 -205 -205q83 -38 121.5 -84.5t38.5 -117.5q0 -113 -90.5 -184.5t-235.5 -71.5q-103 0 -162 43t-59 118q0 43 24 56.5t61.5 23.5t45.5 10q16 0 16 -22q0 -12 -11 -37.5t-11 -56.5q0 -40 31 -67.5t77 -27.5q74 0 114 71t40 151q0 63 -29 103t-73 40
l-43 -4q-17 0 -17 20q0 34 9.5 41t46.5 7q73 0 119 56.5t46 141.5q0 59 -32 94t-86 35q-45 0 -79 -29t-34 -67q0 -4 9 -30t9 -31q0 -17 -39.5 -38.5t-58.5 -21.5q-12 0 -21.5 17t-9.5 38q0 82 82.5 146.5t190.5 64.5q96 0 155.5 -50.5t59.5 -131.5zM1294 1423l-885 -1661
h-104l889 1661h100zM1450 94l-10 -38q-11 -37 -19 -48.5t-34 -12.5l-105 -4l-45 -151q-12 -41 -23 -57.5t-41.5 -23.5t-100.5 -7q-34 0 -34 12q0 1 3 8l80 223l-166 4q-56 2 -70 4.5t-14 10.5v33q0 19 44 91t115.5 162.5t156.5 173t125.5 103.5t90.5 21q29 0 29 -15
q0 -35 -123 -489q78 3 107 10l18 4q16 0 16 -12v-2zM1268 487q-61 -42 -164 -162t-174 -248l215 4q55 157 123 406z" />
    <glyph glyph-name="foursuperior" unicode="&#xf003;" horiz-adv-x="694" 
d="M614 926l-10 -38q-11 -37 -19 -48.5t-34 -12.5l-105 -4l-45 -151q-12 -41 -23 -57.5t-41.5 -23.5t-100.5 -7q-34 0 -34 12q0 1 3 8l80 223l-166 4q-56 2 -70 4.5t-14 10.5v33q0 19 44 91t115.5 162.5t156.5 173t125.5 103.5t90.5 21q29 0 29 -15q0 -35 -123 -489
q78 3 107 10l18 4q16 0 16 -12v-2zM432 1319q-61 -42 -164 -162t-174 -248l215 4q55 157 123 406z" />
    </font>
</defs>
</svg>
