<?xml version="1.0" standalone="no"?>
<!DOCTYPE svg PUBLIC "-//W3C//DTD SVG 1.1//EN" "http://www.w3.org/Graphics/SVG/1.1/DTD/svg11.dtd" >
<svg>
<metadata>
Created by FontForge 20120731 at Sat Nov 19 21:28:09 2016
 By www
URW Software, Copyright 1994 by URW
</metadata>
<defs>
<font id="NimbusRomNo9L-Regu" horiz-adv-x="1024" >
  <font-face 
    font-family="NimbusRomNo9L"
    font-weight="400"
    font-stretch="normal"
    units-per-em="2048"
    panose-1="1 1 1 3 1 1 1 1 1 1"
    ascent="1604"
    descent="-444"
    x-height="922"
    cap-height="1356"
    bbox="-344 -446 2048 1892"
    underline-thickness="102"
    underline-position="-154"
    unicode-range="U+0020-F002"
  />
<missing-glyph horiz-adv-x="512" 
d="M51 0v1356h410v-1356h-410zM410 51v1254h-308v-1254h308z" />
    <glyph glyph-name=".notdef" horiz-adv-x="512" 
d="M51 0v1356h410v-1356h-410zM410 51v1254h-308v-1254h308z" />
    <glyph glyph-name="glyph1" horiz-adv-x="0" 
 />
    <glyph glyph-name="glyph2" horiz-adv-x="512" 
 />
    <glyph glyph-name="space" unicode=" " horiz-adv-x="512" 
 />
    <glyph glyph-name="exclam" unicode="!" horiz-adv-x="682" 
d="M387 360h-27l-18 221q-7 96 -35 283q-41 269 -41 364q0 93 45 134q25 23 63 23q109 0 109 -170q0 -36 -4 -70zM375 200q47 0 81 -38q28 -32 28 -75q0 -50 -37 -80q-31 -25 -74 -25q-50 0 -82 35q-25 28 -25 71q0 51 36 84q30 28 73 28z" />
    <glyph glyph-name="quotedbl" unicode="&#x22;" horiz-adv-x="836" 
d="M613 882h-43q-66 362 -66 418q0 39 27 62q26 22 60 22q40 0 66 -28q21 -22 21 -52q0 -94 -51 -340q-5 -27 -14 -82zM267 882h-43q-66 361 -66 418q0 39 27 62q26 22 61 22q39 0 65 -28q21 -22 21 -52q0 -94 -51 -340q-6 -27 -14 -82z" />
    <glyph glyph-name="numbersign" unicode="#" 
d="M964 555v-113h-223l-64 -442h-118l63 442h-274l-68 -442h-119l68 442h-219v113h237l43 274h-225v113h242l63 414h119l-64 -414h273l61 414h119l-61 -414h199v-113h-216l-41 -274h205zM681 829h-272l-43 -274h274z" />
    <glyph glyph-name="dollar" unicode="$" 
d="M870 1024h-31q-23 96 -49 138q-39 62 -97 95.5t-153 47.5v-504q186 -107 251 -156t104 -113q41 -66 41 -183q0 -152 -108 -240q-75 -61 -169 -85q-52 -13 -119 -24v-178h-69v178q-157 7 -252 41q-65 25 -129 64v266h31q31 -121 64 -169q49 -74 113.5 -107t172.5 -37v577
q-177 100 -251 170q-61 57 -87.5 114t-26.5 129q0 140 111 227q69 53 151 70q43 9 103 15v129h69v-129q121 -16 204 -40q74 -28 126 -69v-227zM469 834v471q-106 -22 -158.5 -74.5t-52.5 -136.5q0 -49 19.5 -87t67.5 -82q33 -30 124 -91zM540 600v-542q104 19 156 62
q78 64 78 180q0 68 -22 113.5t-77 93.5q-39 34 -135 93z" />
    <glyph glyph-name="percent" unicode="%" horiz-adv-x="1706" 
d="M1371 760q104 0 159 -61q51 -55 51 -157q0 -170 -88 -320q-129 -222 -329 -222q-114 0 -178 72q-67 75 -67 192q0 99 41.5 194t116.5 169q137 133 294 133zM1381 694q-91 0 -174 -118q-96 -137 -125 -305q-8 -49 -8 -78q0 -65 41 -102q32 -30 84 -30q106 0 199 116
q60 74 95 170t35 185q0 77 -55 127q-38 35 -92 35zM1299 1384l-789 -1411h-98l720 1284q-110 -63 -222 -63q-86 0 -138 21q15 -50 15 -90q0 -189 -118 -355q-126 -178 -303 -178q-102 0 -173 80q-68 76 -68 180q0 128 71 254q72 130 195 200q86 50 187 50q64 0 107 -27
q9 -5 36 -29q66 -55 177 -55q131 0 231 66q35 23 90 73h80zM717 1229q-76 20 -112 53q-16 13 -27 13q-48 0 -102 -48.5t-100 -131.5q-84 -154 -96 -318v-10q0 -60 41 -98q29 -27 80 -27q71 0 139 49.5t118 139.5q78 139 78 278q0 19 -7.5 59t-11.5 41z" />
    <glyph glyph-name="ampersand" unicode="&#x26;" horiz-adv-x="1593" 
d="M1456 872v-43q-59 -8 -92 -21q-57 -24 -100 -100l-54 -94q-83 -146 -204 -307q143 -189 316 -189q71 0 127 48q22 18 56 61l31 -22q-37 -88 -101 -146q-92 -86 -208 -86q-166 0 -348 187q-93 -81 -163 -118q-132 -69 -280 -69q-188 0 -277 101q-73 83 -73 209
q0 130 79.5 239.5t242.5 204.5l78 45q-72 196 -72 302q0 62 29 125.5t77 107.5q84 78 210 78q138 0 217 -87q59 -66 59 -162q0 -109 -70 -186q-64 -72 -164 -123q-36 -18 -84 -41q120 -234 271 -422q186 246 186 373q0 47 -29 66q-27 19 -102 26v43h442zM658 852
q239 126 239 294q0 83 -55 133q-46 40 -109 40q-70 0 -114 -47q-43 -46 -43 -119q0 -120 57 -249zM516 702q-107 -69 -157 -124q-85 -94 -85 -210q0 -133 95 -221q73 -67 170 -67q74 0 162 46q46 23 127 87q-151 186 -312 489z" />
    <glyph glyph-name="quotesingle" unicode="'" horiz-adv-x="369" 
d="M207 882h-43q-66 361 -66 418q0 39 27 62q26 22 61 22q39 0 65 -28q21 -22 21 -52q0 -94 -51 -340q-6 -27 -14 -82z" />
    <glyph glyph-name="parenleft" unicode="(" horiz-adv-x="682" 
d="M604 1385l18 -33q-110 -89 -167 -157t-99 -163q-82 -188 -82 -510q0 -298 72 -498q47 -128 115 -207q51 -60 161 -146l-24 -33q-80 48 -130.5 91.5t-114.5 117.5q-134 156 -194.5 314.5t-60.5 353.5q0 359 216 624q66 80 131 133q59 47 159 113z" />
    <glyph glyph-name="parenright" unicode=")" horiz-adv-x="682" 
d="M77 -362l-18 33q111 88 167.5 156.5t98.5 163.5q82 187 82 509q0 298 -72 498q-47 129 -115 208q-51 59 -161 146l25 33q79 -49 129.5 -92t114.5 -117q134 -156 194.5 -314.5t60.5 -354.5q0 -359 -216 -623q-66 -81 -131 -133q-59 -47 -159 -113z" />
    <glyph glyph-name="asterisk" unicode="*" 
d="M492 934q-81 -52 -106 -74q-19 -18 -85 -91q-30 -33 -52 -44q-12 -6 -35 -6q-73 0 -73 70q0 29 17 51q21 27 109 43q83 15 134 39q19 8 78 43l-23 14q-59 40 -175 62q-104 19 -127 53q-13 20 -13 43q0 34 24 57q17 17 45 17q25 0 46 -14t53 -51q84 -95 184 -150v26
q1 79 -32 187q-20 67 -20 106q0 32 23 53q19 17 49 17q35 0 53 -22q21 -25 21 -52l-55 -266v-53l14 8q72 39 149 131q69 84 114 84q30 0 54 -23q19 -18 19 -57q0 -33 -17 -53q-17 -22 -86 -32q-74 -12 -131 -36q-24 -9 -100 -51l17 -10q79 -51 198 -70q88 -14 107 -43
q14 -20 14 -47q0 -39 -23 -58q-21 -18 -49 -18q-52 0 -123 89q-78 96 -143 122l-14 6v-14q0 -121 41 -229q17 -46 17 -69q0 -32 -29 -59q-21 -20 -50 -20q-32 0 -53 23q-20 23 -20 50q0 39 22 96q39 98 36 141l-4 67v14z" />
    <glyph glyph-name="plus" unicode="+" horiz-adv-x="1155" 
d="M510 586v450h135v-450h448v-135h-448v-451h-135v451h-449v135h449z" />
    <glyph glyph-name="comma" unicode="," horiz-adv-x="512" 
d="M170 -289l-18 39q83 58 125.5 113t42.5 105q0 28 -28 28q-4 0 -16 -3q-18 -5 -39 -5q-65 0 -99 36q-23 25 -23 69q0 55 36 86q34 30 84 30q70 0 118 -52q47 -51 47 -130q0 -129 -125 -245q-44 -41 -105 -71z" />
    <glyph glyph-name="hyphen" unicode="-" horiz-adv-x="682" 
d="M80 526h504v-129h-504v129z" />
    <glyph glyph-name="period" unicode="." horiz-adv-x="512" 
d="M257 204q47 0 83 -39q30 -33 30 -77q0 -48 -36 -80q-36 -31 -79 -31q-49 0 -84 37q-28 30 -28 75q0 52 38 86q32 29 76 29z" />
    <glyph glyph-name="slash" unicode="/" horiz-adv-x="569" 
d="M588 1384l-467 -1413h-139l469 1413h137z" />
    <glyph glyph-name="zero" unicode="0" 
d="M519 1385q216 0 342 -217q53 -92 83.5 -223t30.5 -269q0 -272 -113 -489q-55 -105 -156 -166q-83 -50 -194 -50q-182 0 -299 139q-72 86 -118 248t-46 331q0 265 114 479q116 217 356 217zM509 1332q-105 0 -172 -119q-91 -162 -91 -538q0 -651 266 -651q111 0 172 109
q94 169 94 532q0 667 -269 667z" />
    <glyph glyph-name="one" unicode="1" 
d="M596 1385l16 -4v-1229q1 -76 36 -96q32 -19 79 -22q33 -3 80 -3v-31h-566v31q104 3 147 27q47 25 48 132v928q0 97 -60 97q-29 0 -149 -45v28z" />
    <glyph glyph-name="two" unicode="2" 
d="M972 281l-112 -281h-799v25l365 387q129 137 197.5 274t68.5 258q0 138 -89 220q-75 69 -199 69q-113 0 -177 -63q-63 -60 -121 -203l-43 10q26 109 53.5 168.5t76.5 111.5q120 128 297 128q176 0 286 -122q92 -102 92 -239q0 -129 -70 -258q-62 -113 -192 -250
l-344 -360h489q49 0 77 10t53 36q19 20 65 89z" />
    <glyph glyph-name="three" unicode="3" 
d="M312 676v27q105 37 158 66t99 75q82 83 82 198q0 103 -67 164q-61 56 -158 56q-185 0 -303 -217l-31 8q41 115 78 166q119 166 324 166q167 0 250 -97q69 -80 69 -183q0 -104 -76 -189q-34 -39 -115 -95q115 -49 169 -109q91 -99 91 -263q0 -212 -148 -340
q-73 -64 -185.5 -101t-231.5 -37q-101 0 -176 37q-53 25 -53 81q0 33 21 51q22 20 57 20q47 0 130 -52q98 -63 172 -63q115 0 189 86q78 91 78 220q0 187 -151 277q-81 49 -211 49q-22 0 -61 -1z" />
    <glyph glyph-name="four" unicode="4" 
d="M967 473v-131h-209v-342h-158v342h-575v131l643 911h90v-911h209zM598 473v702l-491 -702h491z" />
    <glyph glyph-name="five" unicode="5" 
d="M371 1194l-86 -174q187 -33 288 -76q148 -63 224.5 -177t76.5 -272q0 -228 -136 -364q-160 -160 -423 -160q-109 0 -192 40q-57 27 -57 88q0 75 87 75q64 0 157 -68q82 -59 136 -59q112 0 194 90q90 100 90 261q0 164 -99 270q-86 90 -292 147q-103 29 -159 29l-27 -1
q-22 0 -22 16q0 6 3 11l223 486h428q44 1 69 24q9 8 25 29l18 -14l-77 -183q-5 -9 -11 -13q-8 -5 -36 -5h-402z" />
    <glyph glyph-name="six" unicode="6" 
d="M914 1401l4 -33q-103 -22 -157.5 -41t-109.5 -52q-191 -114 -281 -303q-30 -65 -58 -188q79 48 119 66q62 27 142 27q185 0 286 -118q100 -117 100 -310q0 -112 -39.5 -212t-108.5 -163q-112 -103 -281 -103q-198 0 -317 139q-65 77 -104 202t-39 260q0 268 145 470
q140 195 375 292q117 49 324 67zM491 783q-106 0 -173 -51q-57 -43 -57 -188q0 -246 76 -380q37 -65 93.5 -100.5t121.5 -35.5q90 0 148 65q34 37 54.5 115.5t20.5 168.5q0 177 -61 281q-72 125 -223 125z" />
    <glyph glyph-name="seven" unicode="7" 
d="M920 1356v-33l-434 -1339h-133l405 1220h-444q-60 0 -98 -15.5t-72 -54.5q-23 -26 -68 -96l-35 17l121 301h758z" />
    <glyph glyph-name="eight" unicode="8" 
d="M594 760q177 -133 238 -215q80 -106 80 -228q0 -151 -104 -249q-105 -97 -300 -97q-96 0 -178.5 32t-132.5 88q-82 92 -82 218q0 74 23.5 127t83.5 113q41 41 159 131q-133 117 -181 176q-40 50 -56.5 97t-16.5 109q0 135 101 223q115 100 289 100q86 0 161.5 -29
t120.5 -80q70 -78 70 -182q0 -139 -130 -244q-46 -37 -145 -90zM434 639q-69 -57 -101 -104q-62 -89 -62 -211q0 -155 91 -235q69 -61 168 -61q108 0 170 69q56 62 56 156q0 79 -26 125q-48 82 -172 172zM535 797q84 55 123 103q70 86 70 196q0 115 -69 177q-62 55 -159 55
q-111 0 -170 -68q-51 -58 -51 -134q0 -117 123 -231q21 -19 75.5 -59.5t57.5 -38.5z" />
    <glyph glyph-name="nine" unicode="9" 
d="M121 -45l-7 41q100 22 153 40.5t107 51.5q278 172 363 515q-75 -58 -133 -82q-85 -35 -175 -35q-165 0 -264 110q-48 54 -76 135.5t-28 170.5q0 111 41 211.5t112 166.5q115 105 273 105q188 0 314 -145q64 -74 101.5 -190t37.5 -242q0 -274 -150 -493
q-130 -190 -353 -288q-112 -49 -316 -72zM741 727v80q0 521 -270 521q-91 0 -145 -64q-33 -40 -54.5 -123t-21.5 -170q0 -110 29 -202.5t78 -136.5q64 -58 146 -58q118 0 208 75q30 24 30 78z" />
    <glyph glyph-name="colon" unicode=":" horiz-adv-x="569" 
d="M280 940q48 0 83 -39q30 -33 30 -77q0 -48 -36 -80q-36 -31 -79 -31q-49 0 -85 38q-27 29 -27 74q0 51 38 86q32 29 76 29zM280 204q47 0 83 -39q30 -33 30 -77q0 -48 -36 -80q-36 -31 -79 -31q-49 0 -84 37q-28 30 -28 75q0 52 38 86q32 29 76 29z" />
    <glyph glyph-name="semicolon" unicode=";" horiz-adv-x="569" 
d="M219 -289l-18 39q83 58 125.5 113t42.5 105q0 28 -28 28q-4 0 -16 -3q-18 -5 -39 -5q-65 0 -99 36q-23 25 -23 71q0 54 35 85q34 29 85 29q70 0 118 -52q47 -51 47 -130q0 -125 -118 -239q-46 -44 -112 -77zM280 940q48 0 83 -39q30 -33 30 -77q0 -61 -56 -94
q-29 -17 -59 -17q-49 0 -85 38q-27 29 -27 74q0 52 38 86q32 29 76 29z" />
    <glyph glyph-name="less" unicode="&#x3c;" horiz-adv-x="1155" 
d="M1097 -21l-1040 471v136l1040 471v-148l-860 -391l860 -391v-148z" />
    <glyph glyph-name="equal" unicode="=" horiz-adv-x="1155" 
d="M1093 791v-135h-1032v135h1032zM1093 381v-135h-1032v135h1032z" />
    <glyph glyph-name="greater" unicode="&#x3e;" horiz-adv-x="1155" 
d="M57 -21v148l861 391l-861 391v148l1040 -471v-136z" />
    <glyph glyph-name="question" unicode="?" horiz-adv-x="909" 
d="M499 336h-35q3 139 62 291l57 131q76 174 76 322q0 51 -22.5 104t-58.5 86q-58 54 -141 54q-101 0 -164 -63q-30 -30 -30 -63q0 -26 35 -64q43 -48 43 -88q0 -39 -26 -65q-20 -20 -58 -20q-98 0 -98 127q0 131 95 212q101 85 237 85q128 0 239 -69q138 -85 138 -247
q0 -119 -92 -259q-29 -44 -123 -159q-81 -98 -113 -220q-9 -29 -21 -95zM485 202q48 0 81 -38q28 -32 28 -75q0 -58 -48 -88q-28 -17 -62 -17q-52 0 -83 35q-25 28 -25 71q0 51 35 84q31 28 74 28z" />
    <glyph glyph-name="at" unicode="@" horiz-adv-x="1886" 
d="M1409 150l25 -62q-121 -55 -192 -78q-122 -39 -251 -39q-171 0 -321 63t-256 180q-176 192 -176 454q0 148 62.5 286.5t175.5 240.5q210 190 509 190q154 0 291.5 -56.5t229.5 -158.5q151 -166 151 -386q0 -109 -40.5 -213t-112.5 -179q-96 -99 -224 -99q-91 0 -148 64
q-31 36 -39 86q-44 -60 -94 -93q-84 -55 -161 -55q-69 0 -121 58q-59 64 -59 171q0 158 84 301q128 216 318 216q59 0 90 -27q26 -22 57 -80l20 78h141l-132 -520q-5 -18 -5 -39q0 -92 80 -92q83 0 155 88q51 63 80 147t29 169q0 112 -49.5 219.5t-138.5 186.5
q-168 151 -400 151q-231 0 -386 -157q-78 -78 -128 -195q-63 -147 -63 -308q0 -293 190 -461q169 -150 407 -150q187 0 402 99zM1081 951q-81 0 -171 -103q-106 -120 -106 -289q0 -107 49 -148q34 -28 73 -28q42 0 84 32t71 87q41 75 66 165.5t25 160.5q0 123 -91 123z" />
    <glyph glyph-name="A" unicode="A" horiz-adv-x="1479" 
d="M1446 39v-39h-522v39q86 1 115 18q28 16 28 50q0 48 -39 139l-84 196h-536l-94 -239q-16 -41 -16 -80q0 -83 139 -84v-39h-406v39q39 2 66 15q25 13 34 25q30 37 69.5 112.5t84.5 183.5l426 1005h41l510 -1163q70 -154 122 -167q22 -8 62 -11zM443 526h473l-238 564z" />
    <glyph glyph-name="B" unicode="B" horiz-adv-x="1366" 
d="M866 713q116 -29 170 -58q179 -97 179 -288q0 -153 -114 -256q-56 -51 -159 -81t-222 -30h-685v39q85 3 110 11q47 13 64 39q22 35 23 134v910q-2 129 -44 152q-28 19 -72 25q-34 4 -81 7v39h574q246 0 389 -81q148 -84 148 -268q0 -134 -81 -205q-64 -55 -199 -89z
M441 668v-509q0 -45 20 -62q25 -22 104 -22q152 0 224 24q190 62 190 268q0 188 -171 258q-101 42 -367 43zM441 749h195q76 0 142 22.5t102 60.5q57 61 57 167q0 131 -80 201q-41 36 -117.5 57.5t-162.5 21.5h-91q-24 0 -34.5 -14t-10.5 -46v-470z" />
    <glyph glyph-name="C" unicode="C" horiz-adv-x="1366" 
d="M1269 924h-47q-35 122 -72 178q-66 102 -169 155q-91 46 -199 46q-182 0 -311 -119q-176 -164 -176 -490q0 -172 45.5 -305.5t130.5 -207.5q135 -120 331 -120q179 0 334 104q52 35 123 103l37 -36q-62 -83 -141 -137q-183 -124 -419 -124q-151 0 -286.5 56t-225.5 155
q-80 88 -123.5 214.5t-43.5 270.5q0 348 222 542q198 175 469 175q144 0 293 -50q53 -17 82 -17q34 0 62 26q15 14 23 41h43z" />
    <glyph glyph-name="D" unicode="D" horiz-adv-x="1479" 
d="M213 223v910q-2 130 -40 152q-35 22 -140 32v39h553q211 0 375 -54.5t268 -159.5q174 -174 174 -457q0 -150 -54.5 -281t-154.5 -222q-95 -85 -248.5 -133.5t-331.5 -48.5h-581v39q99 7 137 32q41 24 43 152zM422 1201v-1041q0 -48 19 -64q22 -20 86 -20q185 0 294 36
q359 119 359 559q0 338 -243 508q-146 102 -411 102q-72 0 -91 -23q-13 -16 -13 -57z" />
    <glyph glyph-name="E" unicode="E" horiz-adv-x="1251" 
d="M1223 346l-92 -346h-1106v39q94 7 131 30q45 26 47 154v910q-2 127 -46 153q-36 23 -132 31v39h1088l6 -293h-51q-21 107 -57 153q-21 25 -42 33q-55 28 -213 29h-276q-45 0 -55 -12q-13 -14 -13 -58v-454h315q149 2 180 50q28 39 46 144h47v-475h-47q-18 107 -46 148
q-31 47 -180 49h-315v-506q1 -54 15 -64q29 -22 201 -23h54q229 2 313 53q76 43 121 119q23 39 50 97h57z" />
    <glyph glyph-name="F" unicode="F" horiz-adv-x="1139" 
d="M981 473h-47q-16 103 -47 146q-32 48 -178 51h-297v-447q2 -128 46 -154q40 -24 140 -30v-39h-573v39q95 7 133 30q43 25 45 177v887q-2 127 -46 153q-36 23 -132 31v39h1087l6 -293h-51q-20 107 -56 153q-22 25 -42 33q-55 28 -213 29h-279q-43 0 -53 -13
q-12 -13 -12 -57v-454h297q146 2 179 51q30 42 46 143h47v-475z" />
    <glyph glyph-name="G" unicode="G" horiz-adv-x="1479" 
d="M1452 725v-37q-74 -6 -103 -25q-39 -23 -40 -133v-415q-47 -42 -169 -82q-185 -62 -345 -62q-231 0 -419 108q-114 66 -196 179q-114 155 -114 407q0 164 59 306.5t167 238.5q196 174 477 174q140 0 278 -47q59 -20 90 -20q40 0 72 31q13 12 20 36h45l17 -432h-48
q-38 94 -68.5 144t-76.5 95q-118 112 -294 112q-218 0 -356 -155q-68 -76 -108 -206.5t-40 -273.5q0 -307 164 -472q143 -143 375 -143q121 0 217 49q54 27 54 72v332q-2 133 -42 154q-34 20 -137 28v37h521z" />
    <glyph glyph-name="H" unicode="H" horiz-adv-x="1479" 
d="M428 735h621v398q-2 128 -41 151q-36 23 -139 33v39h569v-39q-102 -10 -139 -34q-39 -23 -41 -150v-910q2 -125 42 -150q39 -26 138 -34v-39h-569v39q98 6 137 32q19 13 24 26q19 23 19 149v399h-621v-422q2 -125 42 -150q39 -26 138 -34v-39h-569v39q98 6 137 32
q19 13 24 26q19 23 19 149v887q-2 128 -41 151q-36 23 -139 33v39h569v-39q-102 -10 -139 -34q-39 -23 -41 -150v-398z" />
    <glyph glyph-name="I" unicode="I" horiz-adv-x="682" 
d="M236 223v910q-2 129 -43 152q-30 19 -74 25q-34 4 -82 7v39h609v-39q-86 -4 -110 -12q-49 -12 -66 -40q-24 -40 -25 -132v-910q2 -128 49 -155q30 -19 75 -24q32 -3 77 -5v-39h-609v39q87 3 111 11q48 13 65 40q22 34 23 133z" />
    <glyph glyph-name="J" unicode="J" horiz-adv-x="797" 
d="M569 1133v-758q0 -106 -30 -191.5t-83 -132.5q-92 -80 -233 -80q-116 0 -166 60q-37 44 -37 89q0 43 34 76q26 25 66 25q77 0 106 -105q14 -49 31 -61q10 -6 26 -6q40 0 58.5 32.5t18.5 102.5v949q-2 127 -42 151q-39 24 -148 33v39h587v-39q-84 -7 -106 -14
q-45 -13 -60 -39q-21 -36 -22 -131z" />
    <glyph glyph-name="K" unicode="K" horiz-adv-x="1479" 
d="M846 1317v39h537v-39q-79 -6 -121 -19q-67 -20 -191 -141l-389 -385l478 -512q164 -174 213 -197q44 -23 108 -24v-39h-625v39q42 2 57 2q87 2 87 44q0 38 -75 136t-192 213l-217 215l-53 -43v-383q2 -128 43 -152q39 -25 141 -32v-39h-577v39q100 7 138 31q44 25 46 176
v887q-2 127 -45 152q-37 23 -139 32v39h581v-39q-108 -9 -146 -32q-40 -24 -42 -152v-420l362 330q73 66 126 131q34 42 34 79q0 34 -19 45q-24 14 -120 19z" />
    <glyph glyph-name="L" unicode="L" horiz-adv-x="1251" 
d="M1174 356h51l-98 -356h-1102v39q94 7 131 30q45 26 47 154v910q-2 127 -46 153q-36 23 -132 31v39h577v-39q-104 -7 -143 -31q-45 -26 -47 -153v-969q0 -47 19 -62q25 -21 158 -22h136q260 3 354 117q42 46 95 159z" />
    <glyph glyph-name="M" unicode="M" horiz-adv-x="1821" 
d="M1381 1175l-524 -1175h-29l-514 1127v-826q3 -194 62 -230q41 -27 131 -32v-39h-482v39q99 8 140 35q56 32 59 227v832q-2 129 -46 153q-28 19 -72 24q-32 4 -77 7v39h406l473 -1034l453 1034h407v-39q-96 -8 -133 -31q-43 -26 -45 -153v-910q2 -128 47 -154
q37 -23 131 -30v-39h-573v39q101 7 140 31q44 26 46 176v929z" />
    <glyph glyph-name="N" unicode="N" horiz-adv-x="1479" 
d="M1254 -23h-35l-905 1128v-804q3 -194 62 -230q41 -27 131 -32v-39h-482v39q99 8 140 35q56 32 59 227v903q-64 76 -105 98q-31 15 -94 15v39h350l789 -991v690q-3 196 -60 229q-40 25 -137 33v39h482v-39q-97 -11 -135 -36q-58 -33 -60 -226v-1078z" />
    <glyph glyph-name="O" unicode="O" horiz-adv-x="1479" 
d="M750 1385q139 0 265.5 -56t220.5 -158q173 -189 173 -493q0 -167 -57 -308t-163 -234q-186 -165 -450 -165q-144 0 -273 54.5t-221 153.5q-82 89 -128.5 223.5t-46.5 282.5q0 163 56.5 300.5t162.5 231.5q188 168 461 168zM733 1311q-165 0 -286 -133
q-65 -71 -104.5 -208t-39.5 -290q0 -244 93 -431q47 -95 151 -154q88 -50 194 -50q159 0 267 109q71 71 101 148q67 174 67 389q0 233 -94 414q-50 96 -152 155q-88 51 -197 51z" />
    <glyph glyph-name="P" unicode="P" horiz-adv-x="1139" 
d="M414 596v-373q2 -129 46 -154q31 -20 73 -25q31 -3 74 -5v-39h-574v39q97 9 133 34q17 13 23 27q16 24 16 146v887q-2 127 -40 150q-35 23 -132 34v39h541q204 0 365 -81q83 -42 129 -125q42 -73 42 -164q0 -143 -96 -249q-83 -90 -216 -123q-98 -24 -242 -24
q-72 0 -142 6zM414 678q59 -6 114 -6q145 0 227 47q132 76 132 253q0 180 -130 253q-96 55 -276 55q-42 0 -55 -15q-12 -15 -12 -55v-532z" />
    <glyph glyph-name="Q" unicode="Q" horiz-adv-x="1479" 
d="M1436 -325v-37l-11 -1q-26 -1 -60 -1q-512 0 -726 250l-96 112q-126 43 -192 90q-132 93 -206 242q-75 151 -75 345q0 168 57 308t162 234q190 168 451 168q144 0 274 -56t223 -158q82 -91 127 -219.5t45 -274.5q0 -344 -230 -548q-101 -90 -217 -123q-29 -9 -89 -20
q36 -59 162 -170q167 -134 401 -141zM733 1311q-163 0 -286 -134q-65 -71 -104.5 -207.5t-39.5 -289.5q0 -245 93 -432q47 -93 151 -153q88 -50 192 -50q177 0 295 132q63 71 102.5 212t39.5 298q0 237 -94 419q-49 94 -152 154q-88 51 -197 51z" />
    <glyph glyph-name="R" unicode="R" horiz-adv-x="1366" 
d="M1350 39v-39h-330l-487 631l-115 -4v-404q2 -127 43 -151q40 -26 141 -33v-39h-567v39q96 8 132 32q19 14 24 29q18 31 18 146v887q-2 127 -41 150q-35 23 -133 34v39h565q206 0 361 -78q75 -37 119 -115q41 -72 41 -167q0 -153 -104 -236q-79 -63 -188 -90
q-35 -8 -79 -17l422 -518q52 -64 106 -83q24 -9 72 -13zM418 702q147 3 220 17t143 52q55 30 86 90.5t31 137.5q0 162 -122 232q-86 49 -257 49q-70 0 -89 -23q-12 -15 -12 -51v-504z" />
    <glyph glyph-name="S" unicode="S" horiz-adv-x="1139" 
d="M915 1384l45 -436h-51q-29 108 -62 161q-64 102 -160 153q-72 38 -152 38q-111 0 -169 -66q-45 -51 -45 -124q0 -55 30 -108q23 -40 98.5 -99t173.5 -112q275 -149 344 -287q39 -78 39 -159q0 -158 -119 -266q-118 -108 -298 -108q-124 0 -243 47q-60 23 -96 23
q-26 0 -44 -25q-12 -17 -14 -43h-45l-61 435h47q41 -100 74.5 -154.5t86.5 -105.5q105 -103 254 -103q127 0 195 77q56 65 56 153q0 78 -28 120q-80 120 -306 240q-221 117 -281 234q-39 75 -39 163q0 163 109 259q106 93 243 93q106 0 219 -45q58 -24 92 -24q50 0 64 69h43
z" />
    <glyph glyph-name="T" unicode="T" horiz-adv-x="1251" 
d="M520 1270h-111q-200 -3 -249 -65q-31 -36 -48 -86q-14 -46 -28 -111h-49l12 348h1155l12 -348h-49q-22 106 -38 139q-30 65 -72 89q-60 33 -215 34h-111v-1047q2 -126 45 -151q31 -21 74 -27q32 -4 78 -6v-39h-599v39q83 5 107 14q47 13 64 39q21 32 22 154v1024z" />
    <glyph glyph-name="U" unicode="U" horiz-adv-x="1479" 
d="M1252 1055v-535q0 -161 -29 -251q-97 -298 -496 -298q-165 0 -275.5 52t-171.5 157q-67 117 -67 314v639q-2 129 -42 152q-37 24 -142 32v39h579v-39q-106 -10 -145 -35q-39 -23 -41 -149v-656q0 -179 52 -270q83 -146 301 -146q80 0 155 24t124 65q74 62 95 172
q13 66 13 180v553q-3 194 -61 228q-41 27 -132 34v39h476v-39q-100 -12 -139 -39q-51 -31 -54 -223z" />
    <glyph glyph-name="V" unicode="V" horiz-adv-x="1479" 
d="M1428 1356v-39q-50 -4 -78 -16q-48 -21 -110 -174l-455 -1150h-31l-504 1125q-88 190 -150 205q-25 8 -67 10v39h545v-39q-44 -3 -60 -4q-94 -5 -94 -63q0 -25 10 -50q24 -65 74 -178l310 -692l301 751q39 99 39 152q0 39 -31 59t-119 25v39h420z" />
    <glyph glyph-name="W" unicode="W" horiz-adv-x="1933" 
d="M1908 1356v-39q-81 -15 -114 -43q-26 -24 -55 -103q-160 -432 -206 -561q-79 -226 -212 -633h-31l-327 867l-316 -867h-31l-395 1100q-76 203 -143 225q-25 10 -68 15v39h502v-39q-86 -6 -112 -22q-21 -14 -21 -41q0 -39 22 -97l295 -770l219 578l-67 168
q-63 150 -108 168q-30 14 -99 16v39h547v-39q-158 -3 -158 -71q0 -36 31 -105q9 -22 25 -62l270 -698l255 694q33 89 33 154q0 41 -30 60q-31 21 -111 28v39h405z" />
    <glyph glyph-name="X" unicode="X" horiz-adv-x="1479" 
d="M1425 1356v-39q-72 -5 -113 -19q-71 -25 -192 -174l-299 -372l393 -562q83 -115 142 -134q28 -10 85 -17v-39h-608v39q41 3 56 3q102 5 102 61q0 46 -104 200l-195 287l-244 -303q-106 -132 -106 -177q0 -31 25 -45q32 -20 130 -26v-39h-477v39q54 4 85 16q47 17 212 217
l321 396l-223 327q-199 288 -277 306q-33 12 -93 16v39h618v-39q-42 -1 -57 -2q-99 -2 -99 -59q0 -34 40 -104.5t134 -203.5l87 -120l231 282q82 100 82 142q0 31 -23 44q-30 18 -120 21v39h487z" />
    <glyph glyph-name="Y" unicode="Y" horiz-adv-x="1479" 
d="M1440 1356v-39q-54 -6 -89 -22q-78 -36 -194 -211l-303 -463v-398q2 -130 46 -154q32 -20 78 -25q36 -4 87 -5v-39h-627v39q92 4 117 12q50 13 67 40q22 32 23 155v356l-268 393q-205 295 -266 310q-25 9 -66 12v39h573v-39q-37 -2 -51 -3q-94 -4 -94 -57q0 -40 34 -92
l304 -454l293 463q28 44 28 75q0 34 -24 48q-33 19 -117 20v39h449z" />
    <glyph glyph-name="Z" unicode="Z" horiz-adv-x="1251" 
d="M1175 360h47l-49 -360h-1155v31l895 1247h-453q-211 -3 -275 -88q-35 -43 -51 -103q-9 -34 -18 -81h-53l41 350h1077v-31l-884 -1247h526q188 1 255 79q43 47 69 116q13 36 28 87z" />
    <glyph glyph-name="bracketleft" unicode="[" horiz-adv-x="682" 
d="M612 -268v-51h-432v1675h432v-51h-184q-49 0 -70.5 -21t-21.5 -69v-1377q0 -53 25 -79.5t75 -26.5h176z" />
    <glyph glyph-name="backslash" unicode="\" horiz-adv-x="569" 
d="M-18 1384h137l469 -1413h-139z" />
    <glyph glyph-name="bracketright" unicode="]" horiz-adv-x="682" 
d="M70 -268h184q49 0 70.5 21t21.5 69v1376q0 54 -25 80.5t-75 26.5h-176v51h432v-1675h-432v51z" />
    <glyph glyph-name="asciicircum" unicode="^" horiz-adv-x="961" 
d="M188 608h-139l371 748h123l370 -748h-139l-293 592z" />
    <glyph glyph-name="underscore" unicode="_" 
d="M1024 -256h-1024v102h1024v-102z" />
    <glyph glyph-name="grave" unicode="`" horiz-adv-x="682" 
d="M496 1038h-82l-316 199q-59 37 -59 88q0 64 69 64q21 0 31 -5q23 -9 56 -42z" />
    <glyph glyph-name="a" unicode="a" horiz-adv-x="909" 
d="M905 135v-53q-52 -57 -86 -76q-44 -26 -97 -26q-67 0 -98 41q-26 35 -34 108q-173 -149 -298 -149q-100 0 -164 69q-52 56 -52 149q0 113 74 178q93 83 257 149q79 32 181 73v125q0 170 -156 170q-81 0 -124 -45q-23 -25 -23 -55q0 -21 6 -50q4 -20 4 -32q0 -35 -30 -62
q-26 -24 -62 -24q-40 0 -64 28q-24 27 -24 60q0 78 77 147q92 82 267 82q185 0 254 -113q41 -68 41 -214v-400q0 -87 21 -106q14 -12 40 -12q42 0 90 38zM588 549q-160 -59 -208 -93q-64 -42 -94 -88.5t-30 -103.5v-8q0 -80 50 -125q37 -32 79 -32q70 0 150 46q32 18 42 37
q11 21 11 70v297z" />
    <glyph glyph-name="b" unicode="b" 
d="M313 767q22 55 71 96q94 79 213 79q149 0 248 -116q113 -132 113 -329q0 -243 -166 -397q-132 -121 -313 -121q-158 0 -285 67q-53 29 -53 65v1063q0 68 -19 86q-20 18 -82 18q-18 0 -34 -2v33l59 16q127 36 238 74l10 -4v-628zM313 660v-517q0 -23 17 -39
q27 -26 77.5 -42.5t104.5 -16.5q116 0 185 77q36 41 58.5 119t22.5 163q0 158 -64 285q-28 58 -81 91t-118 33q-100 0 -163 -66q-39 -41 -39 -87z" />
    <glyph glyph-name="c" unicode="c" horiz-adv-x="909" 
d="M815 320l29 -19q-83 -161 -156 -225q-109 -96 -248 -96q-163 0 -276 123q-53 57 -83 145.5t-30 187.5q0 252 160 392q131 115 288 115q121 0 217 -57q43 -26 71 -69.5t28 -85.5q0 -32 -24 -57q-29 -29 -73 -29q-72 0 -98 95l-12 45q-17 63 -41 79q-30 20 -79 20
q-117 0 -194 -87q-39 -44 -62 -117.5t-23 -152.5q0 -100 31.5 -186t87.5 -136q85 -77 199 -77q113 0 201 83q35 34 87 109z" />
    <glyph glyph-name="d" unicode="d" 
d="M704 -20l-8 6v130q-52 -71 -114 -103.5t-149 -32.5q-162 0 -269 115q-51 55 -80 141.5t-29 184.5q0 123 44.5 233.5t123.5 181.5q117 106 259 106q78 0 144 -36q26 -15 70 -52v320q0 68 -19 86q-20 18 -75 18q-21 0 -45 -2v33q173 45 301 90l10 -4v-1162q0 -80 21 -97
q23 -19 69 -19q11 0 47 2v-33zM696 209v471q0 84 -71 151q-58 54 -138 54q-97 0 -169 -79q-39 -43 -63 -126.5t-24 -176.5q0 -114 31.5 -208t85.5 -142q74 -66 166 -66t148 61q34 37 34 61z" />
    <glyph glyph-name="e" unicode="e" horiz-adv-x="909" 
d="M835 336l33 -15q-54 -140 -142 -222q-126 -119 -291 -119q-173 0 -277 117q-49 55 -78 147t-29 194q0 127 39.5 231t111.5 168q119 106 276 106q169 0 263 -118q53 -67 71 -151q10 -46 17 -107h-631q6 -167 57 -270q87 -176 264 -176q133 0 233 103q36 37 83 112z
M202 633h418q-18 122 -57 176q-42 60 -143 60q-184 0 -218 -236z" />
    <glyph glyph-name="f" unicode="f" horiz-adv-x="682" 
d="M633 922v-66h-250v-643q0 -70 9 -103t31 -48q31 -20 73 -26q32 -3 77 -5v-31h-532v31q92 5 127 26q41 23 43 156v643h-168v66h168q1 122 16 191t55 138q40 70 116.5 109t172.5 39q58 0 109.5 -16.5t76.5 -44.5q28 -30 28 -66q0 -38 -28 -62q-25 -22 -57 -22q-48 0 -94 74
q-32 52 -64 71q-15 9 -45 9q-116 0 -116 -183v-237h252z" />
    <glyph glyph-name="g" unicode="g" 
d="M962 794h-170q39 -88 39 -172q0 -149 -98 -231q-102 -86 -222 -86q-3 0 -116 10q-41 -12 -77 -51q-46 -48 -46 -78q0 -48 160 -55l264 -12q136 -7 198 -82q50 -61 50 -137q0 -114 -113 -206q-80 -65 -192.5 -102.5t-227.5 -37.5q-139 0 -253 60q-47 24 -74 61.5t-27 77.5
q0 70 84 155q34 34 116 94q-63 30 -87 55q-21 21 -21 53q0 45 54 104q11 11 75 70q27 25 53 50q-88 43 -126 88q-64 76 -64 187q0 148 107 243q102 91 234 91q82 0 164 -31l46 -17q55 -21 112 -21h158v-80zM300 -4q-54 -64 -72 -94q-28 -45 -28 -82q0 -49 42 -85
q32 -27 105 -45.5t151 -18.5q186 0 296 63q93 52 93 135q0 38 -24 61q-42 40 -229 39q-77 0 -177 8t-157 19zM311 691v-6q0 -184 89 -278q48 -51 121 -51q68 0 105 43q47 53 47 142q0 133 -61 247q-52 97 -149 97q-67 0 -110 -48q-42 -47 -42 -146z" />
    <glyph glyph-name="h" unicode="h" 
d="M321 703v-494q2 -130 40 -152q28 -19 99 -26v-31h-442v31q71 10 96 27q33 20 35 151v965q0 68 -19 85q-19 19 -85 19q-14 0 -25 -2v33l56 16q145 43 235 74l10 -6v-624q63 84 116 118q85 55 185 55q252 0 252 -325v-408q2 -129 33 -149q23 -17 90 -29v-31h-434v31
q71 7 99 26q38 22 40 152v406q0 216 -153 216q-73 0 -142 -48q-33 -23 -86 -80z" />
    <glyph glyph-name="i" unicode="i" horiz-adv-x="569" 
d="M359 942l8 -6v-727q2 -130 37 -151q32 -21 115 -27v-31h-486v31q88 5 121 24q39 21 41 154v475q0 87 -26 110q-14 13 -41 13q-29 0 -71 -6l-16 -2v31zM265 1399q46 0 77 -35q27 -29 27 -70q0 -47 -34 -77q-29 -27 -72 -27q-47 0 -76 33q-27 31 -27 72q0 44 36 78
q26 26 69 26z" />
    <glyph glyph-name="j" unicode="j" horiz-adv-x="569" 
d="M396 936v-936q0 -120 -31.5 -218.5t-86.5 -148.5q-88 -79 -229 -79q-52 0 -98.5 15t-68.5 39q-25 27 -25 59q0 35 26 57q24 22 57 22q47 0 99 -65q45 -58 87 -58q47 0 69 38q21 37 25 94q4 69 4 153v776q0 87 -26 110q-14 13 -40 13q-33 0 -82 -7l-10 -1v33
q160 49 320 110zM294 1399q46 0 77 -35q27 -29 27 -70q0 -47 -34 -77q-30 -27 -72 -27q-47 0 -76 33q-27 31 -27 72q0 44 36 78q26 26 69 26z" />
    <glyph glyph-name="k" unicode="k" 
d="M14 1276v33l61 16q155 42 257 74l8 -4v-860l280 250q47 42 47 71q0 15 -12 23q-21 12 -90 14v29h418v-31q-40 0 -61 -2q-52 -6 -82 -23q-93 -41 -300 -233l-59 -55l313 -398q59 -73 114 -107.5t126 -41.5v-31h-447v31h39q43 0 43 31q0 14 -24 43q-7 9 -19 26l-286 383
v-377q0 -55 25 -78q24 -23 88 -26l41 -2v-31h-480v31q100 17 128 34q25 15 26 103v987q0 85 -24 107q-20 18 -64 18q-28 0 -66 -4z" />
    <glyph glyph-name="l" unicode="l" horiz-adv-x="569" 
d="M39 1276v33q184 45 326 90l8 -4v-1223q2 -96 36 -116q32 -20 118 -25v-31h-484v31q84 7 119 30q38 24 39 117v977q0 85 -24 107q-20 18 -61 18q-28 0 -66 -3z" />
    <glyph glyph-name="m" unicode="m" horiz-adv-x="1593" 
d="M39 816v34q150 42 287 92l14 -4v-153q107 82 160 112q81 45 158 45q162 0 216 -172q160 172 334 172q238 0 238 -364v-422q1 -74 27 -95q26 -23 61 -26l53 -4v-31h-448v31q76 9 102 26q32 18 33 121v433q0 118 -27 165q-34 59 -126 59q-96 0 -165 -56q-26 -22 -59 -68
v-516q2 -119 47 -144q31 -18 100 -20v-31h-458v31q73 5 101 23q37 20 38 122v445q0 215 -132 215q-56 0 -115.5 -23t-97.5 -59q-32 -29 -32 -39v-578q1 -66 35 -86q33 -18 104 -20v-31h-454v31q70 1 101 20q41 23 42 123v518q0 95 -27 119q-14 13 -44 13t-66 -8z" />
    <glyph glyph-name="n" unicode="n" 
d="M33 816v34q149 44 283 92l14 -4v-162q89 84 139 116q79 50 158 50q104 0 170 -70q72 -77 72 -237v-469q1 -88 33 -109q28 -20 92 -26v-31h-426v31q59 5 85 23q42 26 44 149v428q0 100 -37 149t-113 49q-62 0 -127 -45q-29 -20 -84 -71v-576q1 -58 30 -78q32 -22 105 -28
v-31h-434v31q62 5 89 23q36 23 38 130v508q0 95 -27 119q-13 13 -48 13t-56 -8z" />
    <glyph glyph-name="o" unicode="o" 
d="M511 942q208 0 336 -143q115 -128 115 -319q0 -112 -42.5 -215t-118.5 -173q-121 -112 -294 -112q-199 0 -326 143q-122 138 -122 339q0 180 95 309q126 171 357 171zM480 885q-91 0 -160 -73q-77 -82 -77 -248q0 -229 89 -395q71 -132 204 -132q86 0 146 61
q96 96 96 312q0 184 -76 332q-35 68 -93.5 105.5t-128.5 37.5z" />
    <glyph glyph-name="p" unicode="p" 
d="M18 805v33q150 47 295 104l12 -4v-158q129 162 294 162q142 0 236 -109q50 -58 78.5 -145.5t28.5 -181.5q0 -166 -81 -310q-121 -216 -350 -216q-81 0 -140 35q-26 15 -66 53v-322q2 -109 40 -130t140 -23v-37h-495v35q79 8 111 31q30 20 32 110v958q0 82 -21 101
q-16 16 -63 16q-22 0 -51 -2zM325 684v-504q0 -34 51 -76q70 -58 162 -58q91 0 161 77q39 43 63 127t24 175q0 154 -61 274q-28 55 -87 91q-47 29 -105 29q-103 0 -173 -72q-35 -37 -35 -63z" />
    <glyph glyph-name="q" unicode="q" 
d="M737 871l110 64h23v-1223q1 -72 26 -90q27 -20 103 -37v-29h-483v35q98 7 140 35q40 26 42 120v385q-140 -152 -322 -152q-130 0 -222 104q-48 55 -76.5 145.5t-28.5 189.5q0 125 43 232.5t121 176.5q127 115 288 115q112 0 236 -71zM698 260v422q0 203 -190 203
q-120 0 -193 -85q-40 -47 -65 -132t-25 -175q0 -145 60 -264q63 -125 207 -125q105 0 178 63q28 24 28 93z" />
    <glyph glyph-name="r" unicode="r" horiz-adv-x="682" 
d="M14 799v33q159 52 303 110l10 -4v-188q73 106 120 144q60 48 125 48q58 0 87 -33q26 -29 26 -75q0 -92 -79 -92q-39 0 -83 40q-34 31 -53 31q-43 0 -92 -58q-51 -60 -51 -110v-461q1 -102 46 -127q38 -22 128 -26v-31h-491v31q86 16 114 34q30 20 31 107v512
q0 87 -26 110q-14 13 -44 13t-71 -8z" />
    <glyph glyph-name="s" unicode="s" horiz-adv-x="797" 
d="M645 643h-31q-26 102 -50 145q-62 107 -176 107q-82 0 -124 -49q-33 -38 -33 -90q0 -88 88 -140l221 -131q101 -60 144 -128q28 -44 28 -115q0 -112 -85 -185q-89 -77 -201 -77q-65 0 -153 21q-63 15 -94 15q-29 0 -46 -24h-27v319h33q34 -148 88 -214q61 -72 172 -72
q92 0 136 51q34 38 34 96q0 93 -107 153l-118 68q-167 95 -210 176q-30 57 -30 119q0 110 79 183q77 71 201 71q73 0 143 -28q34 -13 54 -13q16 0 33 23h22z" />
    <glyph glyph-name="t" unicode="t" horiz-adv-x="569" 
d="M523 922v-66h-207v-586q0 -126 40 -162q25 -22 66 -22q63 0 124 72l26 -23q-99 -155 -247 -155q-181 0 -181 260v616h-109q-8 5 -8 15q0 17 35 38q80 47 240 277q14 0 14 -26v-238h207z" />
    <glyph glyph-name="u" unicode="u" 
d="M981 102v-28q-142 -38 -281 -92l-8 4v170l-88 -88q-87 -88 -212 -88q-112 0 -183 75q-64 67 -64 191v516q-1 86 -39 109q-29 18 -88 22v29h299v-668q0 -70 51 -118q38 -37 94 -37q95 0 182 69q38 31 38 109v481q-2 84 -32 103q-35 21 -120 26v35h324v-703q1 -79 24 -95
q26 -21 93 -22h10z" />
    <glyph glyph-name="v" unicode="v" 
d="M977 922v-31q-29 -3 -47 -12q-31 -14 -86 -148l-263 -657q-41 -103 -58 -103q-10 0 -17 12q-10 16 -19 41q-9 26 -16 44l-245 587q-72 170 -117 214q-18 19 -70 22v31h401v-31q-55 -5 -75 -19q-19 -12 -19 -37q0 -31 18 -77l209 -524l203 530q12 31 12 60q0 59 -96 67v31
h285z" />
    <glyph glyph-name="w" unicode="w" horiz-adv-x="1479" 
d="M1169 922h252v-31q-22 -8 -33 -16q-18 -15 -51 -94l-283 -709q-36 -91 -48 -98q-4 -3 -9 -3t-10 3q-8 5 -39 85l-186 484l-229 -492q-37 -80 -52 -80q-17 0 -53 90l-276 701q-46 113 -79 123q-12 4 -30 6v31h369v-31q-52 -5 -72 -19q-22 -15 -22 -49q0 -30 12 -61
l203 -535l186 408q-22 62 -40 115q-41 114 -90 130q-17 7 -52 11v31h415v-31q-74 -11 -98 -27q-21 -14 -21 -45q0 -27 10 -53l25 -69l172 -459l184 454q35 86 35 137q0 23 -17 36q-18 15 -73 26v31z" />
    <glyph glyph-name="x" unicode="x" 
d="M570 31q51 2 67 12q15 10 15 37q0 19 -11 37l-188 287l-162 -252q-41 -64 -41 -84q0 -37 82 -37v-31h-297v31q36 4 55 11q38 14 94 93l234 338l-193 296q-57 88 -101 113q-18 10 -56 10h-19v30h424v-30q-88 -2 -88 -45q0 -29 53 -117q8 -12 53 -81q9 -13 17 -26
q45 69 63 90q75 96 75 133q0 21 -16 31q-18 11 -67 15v30h324v-30q-103 -4 -166 -91l-170 -246l262 -401q43 -65 80.5 -93t87.5 -30v-31h-411v31z" />
    <glyph glyph-name="y" unicode="y" 
d="M973 922v-31q-25 -3 -40 -11q-33 -17 -58 -81l-315 -835q-92 -243 -180 -335q-72 -75 -167 -75q-81 0 -122 47q-29 33 -29 72q0 40 28 66q24 24 59 24q51 0 108 -24q34 -13 53 -13q22 0 50.5 25.5t51.5 65.5q54 97 79 208q3 11 3 12q0 49 -89 208q-12 22 -38 79l-234 504
q-24 53 -104 65v29h422v-31q-72 -4 -99 -19q-20 -12 -20 -36q0 -32 21 -78l235 -518l199 566q8 22 8 34q0 51 -98 51v31h276z" />
    <glyph glyph-name="z" unicode="z" horiz-adv-x="909" 
d="M856 276l-29 -276h-772v30l545 831h-283q-107 -1 -135 -46q-25 -39 -37 -135h-37l6 242h711v-30l-551 -831h283q166 2 202 54q27 32 41 85q9 35 19 84z" />
    <glyph glyph-name="braceleft" unicode="{" horiz-adv-x="983" 
d="M717 -370q-125 2 -169 16q-91 25 -126 82q-43 70 -43 188v363q-2 124 -51 171q-36 35 -123 62q87 26 123 61q49 46 51 171v364q3 182 91 235q57 36 134 44q47 5 113 6v-23q-86 -23 -125 -59q-59 -54 -61 -193v-344q-2 -152 -59 -202q-39 -36 -134 -62q95 -25 134 -60
q57 -49 59 -202v-344q2 -139 61 -192q39 -37 125 -60v-22z" />
    <glyph glyph-name="bar" unicode="|" horiz-adv-x="410" 
d="M137 -29v1413h135v-1413h-135z" />
    <glyph glyph-name="braceright" unicode="}" horiz-adv-x="983" 
d="M266 1393q125 -3 169 -16q91 -25 125 -82q44 -71 44 -189v-362q2 -125 50 -171q37 -35 124 -61q-87 -27 -123 -62q-49 -47 -51 -171v-365q-3 -182 -91 -234q-57 -37 -134 -44q-47 -5 -113 -6v22q86 23 125 60q59 53 61 192v344q2 152 58 202q40 36 135 62q-95 25 -134 60
q-57 50 -59 202v344q-2 139 -61 193q-39 36 -125 59v23z" />
    <glyph glyph-name="asciitilde" unicode="~" horiz-adv-x="1108" 
d="M1028 556q-23 -32 -36 -50q-98 -125 -215 -125q-85 0 -183 43q-20 9 -129 67q-55 29 -122 29q-51 0 -87 -28q-26 -20 -63 -76l-111 65q22 31 36 49q98 125 215 125q86 0 183 -43q20 -9 129 -67q55 -29 122 -29q51 0 88 28q25 20 62 76z" />
    <glyph glyph-name="Adieresis" unicode="&#xc4;" horiz-adv-x="1479" 
d="M1446 39v-39h-522v39q86 1 115 18q28 16 28 50q0 48 -39 139l-84 196h-536l-94 -239q-16 -41 -16 -80q0 -83 139 -84v-39h-406v39q39 2 66 15q25 13 34 25q30 37 69.5 112.5t84.5 183.5l426 1005h41l510 -1163q70 -154 122 -167q22 -8 62 -11zM443 526h473l-238 564z
M523 1708q43 0 75 -34q27 -30 27 -68q0 -44 -34 -75q-30 -26 -71 -26q-47 0 -75 36q-23 29 -23 66q0 43 35 77q26 24 66 24zM931 1708q43 0 75 -34q27 -29 27 -68q0 -44 -34 -75q-30 -26 -71 -26q-47 0 -75 36q-23 29 -23 66q0 43 35 77q26 24 66 24z" />
    <glyph glyph-name="Aring" unicode="&#xc5;" horiz-adv-x="1479" 
d="M1446 39v-39h-522v39q86 1 115 18q28 16 28 50q0 48 -39 139l-84 196h-536l-94 -239q-16 -41 -16 -80q0 -83 139 -84v-39h-406v39q39 2 66 15q25 13 34 25q30 37 69.5 112.5t84.5 183.5l426 1005h41l510 -1163q70 -154 122 -167q22 -8 62 -11zM443 526h473l-238 564z
M722 1873q87 0 149 -68q53 -58 53 -136q0 -90 -67 -150q-59 -53 -139 -53q-74 0 -130 47q-72 60 -72 157q0 89 68 151q57 52 138 52zM717 1803q-57 0 -95 -43q-36 -41 -36 -91q0 -58 46 -101q34 -32 85 -32q63 0 103 44q34 38 34 90q0 57 -45 98q-38 35 -92 35z" />
    <glyph glyph-name="Ccedilla" unicode="&#xc7;" horiz-adv-x="1366" 
d="M688 -27l-41 -106q26 6 54 6q101 0 143 -50q32 -38 32 -90q0 -69 -52 -116q-65 -57 -204 -57q-89 0 -172 33l29 63q75 -25 134 -25q61 0 90 32q21 23 21 59q0 35 -20 53q-21 20 -88 20q-34 0 -57 -8l-15 10l76 183q-168 24 -299 119q-262 191 -262 567q0 349 222 543
q199 175 469 175q144 0 293 -50q53 -17 82 -17q34 0 62 26q15 14 23 41h43l18 -460h-47q-35 122 -72 178q-66 102 -169 155q-91 46 -199 46q-182 0 -311 -119q-176 -164 -176 -490q0 -172 45.5 -305.5t130.5 -207.5q135 -120 331 -120q179 0 334 104q52 35 123 103l37 -36
q-61 -82 -141 -137q-184 -124 -415 -124q-20 0 -52 2z" />
    <glyph glyph-name="Eacute" unicode="&#xc9;" horiz-adv-x="1251" 
d="M1223 346l-92 -346h-1106v39q94 7 131 30q45 26 47 154v910q-2 127 -46 153q-36 23 -132 31v39h1088l6 -293h-51q-21 107 -57 153q-21 25 -42 33q-55 28 -213 29h-276q-45 0 -55 -12q-13 -14 -13 -58v-454h315q149 2 180 50q28 39 46 144h47v-475h-47q-18 107 -46 148
q-31 47 -180 49h-315v-506q1 -54 15 -64q29 -22 201 -23h54q229 2 313 53q76 43 121 119q23 39 50 97h57zM559 1473h-82l301 303q47 47 87 47q71 0 71 -65q0 -47 -62 -86z" />
    <glyph glyph-name="Ntilde" unicode="&#xd1;" horiz-adv-x="1479" 
d="M1254 -23h-35l-905 1128v-804q3 -194 62 -230q41 -27 131 -32v-39h-482v39q99 8 140 35q56 32 59 227v903q-64 76 -105 98q-31 15 -94 15v39h350l789 -991v690q-3 196 -60 229q-40 25 -137 33v39h482v-39q-97 -11 -135 -36q-58 -33 -60 -226v-1078zM1018 1741h60
q-29 -109 -74 -160q-51 -57 -141 -57q-48 0 -87 15q-29 10 -79 34l-47 23q-47 22 -85 22q-70 0 -104 -94h-59q22 94 66 142q60 65 140 65q70 0 144 -37l49 -25q63 -31 110 -31q33 0 57 22q24 21 50 81z" />
    <glyph glyph-name="Odieresis" unicode="&#xd6;" horiz-adv-x="1479" 
d="M750 1385q139 0 265.5 -56t220.5 -158q173 -189 173 -493q0 -167 -57 -308t-163 -234q-186 -165 -450 -165q-144 0 -273 54.5t-221 153.5q-82 89 -128.5 223.5t-46.5 282.5q0 163 56.5 300.5t162.5 231.5q188 168 461 168zM733 1311q-165 0 -286 -133
q-65 -71 -104.5 -208t-39.5 -290q0 -244 93 -431q47 -95 151 -154q88 -50 194 -50q159 0 267 109q71 71 101 148q67 174 67 389q0 233 -94 414q-50 96 -152 155q-88 51 -197 51zM538 1708q43 0 75 -34q27 -29 27 -68q0 -44 -34 -75q-30 -26 -71 -26q-47 0 -75 36
q-23 29 -23 66q0 43 35 77q26 24 66 24zM946 1708q43 0 75 -34q27 -30 27 -68q0 -44 -34 -75q-30 -26 -71 -26q-47 0 -75 36q-23 29 -23 66q0 43 35 77q26 24 66 24z" />
    <glyph glyph-name="Udieresis" unicode="&#xdc;" horiz-adv-x="1479" 
d="M1252 1055v-535q0 -161 -29 -251q-97 -298 -496 -298q-165 0 -275.5 52t-171.5 157q-67 117 -67 314v639q-2 129 -42 152q-37 24 -142 32v39h579v-39q-106 -10 -145 -35q-39 -23 -41 -149v-656q0 -179 52 -270q83 -146 301 -146q80 0 155 24t124 65q74 62 95 172
q13 66 13 180v553q-3 194 -61 228q-41 27 -132 34v39h476v-39q-100 -12 -139 -39q-51 -31 -54 -223zM573 1708q43 0 75 -34q27 -30 27 -68q0 -44 -34 -75q-30 -26 -71 -26q-47 0 -75 36q-23 29 -23 66q0 43 35 77q26 24 66 24zM981 1708q43 0 75 -34q27 -29 27 -68
q0 -44 -34 -75q-30 -26 -71 -26q-47 0 -75 36q-23 29 -23 66q0 43 35 77q26 24 66 24z" />
    <glyph glyph-name="aacute" unicode="&#xe1;" horiz-adv-x="909" 
d="M905 135v-53q-52 -57 -86 -76q-44 -26 -97 -26q-67 0 -98 41q-26 35 -34 108q-173 -149 -298 -149q-100 0 -164 69q-52 56 -52 149q0 113 74 178q93 83 257 149q79 32 181 73v125q0 170 -156 170q-81 0 -124 -45q-23 -25 -23 -55q0 -21 6 -50q4 -20 4 -32q0 -35 -30 -62
q-26 -24 -62 -24q-40 0 -64 28q-24 27 -24 60q0 78 77 147q92 82 267 82q185 0 254 -113q41 -68 41 -214v-400q0 -87 21 -106q14 -12 40 -12q42 0 90 38zM588 549q-160 -59 -208 -93q-64 -42 -94 -88.5t-30 -103.5v-8q0 -80 50 -125q37 -32 79 -32q70 0 150 46q32 18 42 37
q11 21 11 70v297zM386 1038h-82l301 304q33 33 55 42q11 5 32 5q71 0 71 -65q0 -48 -62 -87z" />
    <glyph glyph-name="agrave" unicode="&#xe0;" horiz-adv-x="909" 
d="M905 135v-53q-52 -57 -86 -76q-44 -26 -97 -26q-67 0 -98 41q-26 35 -34 108q-173 -149 -298 -149q-100 0 -164 69q-52 56 -52 149q0 113 74 178q93 83 257 149q79 32 181 73v125q0 170 -156 170q-81 0 -124 -45q-23 -25 -23 -55q0 -21 6 -50q4 -20 4 -32q0 -35 -30 -62
q-26 -24 -62 -24q-40 0 -64 28q-24 27 -24 60q0 78 77 147q92 82 267 82q185 0 254 -113q41 -68 41 -214v-400q0 -87 21 -106q14 -12 40 -12q42 0 90 38zM588 549q-160 -59 -208 -93q-64 -42 -94 -88.5t-30 -103.5v-8q0 -80 50 -125q37 -32 79 -32q70 0 150 46q32 18 42 37
q11 21 11 70v297zM610 1038h-82l-316 199q-59 37 -59 88q0 64 69 64q21 0 31 -5q23 -9 56 -42z" />
    <glyph glyph-name="acircumflex" unicode="&#xe2;" horiz-adv-x="909" 
d="M905 135v-53q-52 -57 -86 -76q-44 -26 -97 -26q-67 0 -98 41q-26 35 -34 108q-173 -149 -298 -149q-100 0 -164 69q-52 56 -52 149q0 113 74 178q93 83 257 149q79 32 181 73v125q0 170 -156 170q-81 0 -124 -45q-23 -25 -23 -55q0 -21 6 -50q4 -20 4 -32q0 -35 -30 -62
q-26 -24 -62 -24q-40 0 -64 28q-24 27 -24 60q0 78 77 147q92 82 267 82q185 0 254 -113q41 -68 41 -214v-400q0 -87 21 -106q14 -12 40 -12q42 0 90 38zM588 549q-160 -59 -208 -93q-64 -42 -94 -88.5t-30 -103.5v-8q0 -80 50 -125q37 -32 79 -32q70 0 150 46q32 18 42 37
q11 21 11 70v297zM773 1038h-70l-250 211l-247 -211h-70l254 342h127z" />
    <glyph glyph-name="adieresis" unicode="&#xe4;" horiz-adv-x="909" 
d="M905 135v-53q-52 -57 -86 -76q-44 -26 -97 -26q-67 0 -98 41q-26 35 -34 108q-173 -149 -298 -149q-100 0 -164 69q-52 56 -52 149q0 113 74 178q93 83 257 149q79 32 181 73v125q0 170 -156 170q-81 0 -124 -45q-23 -25 -23 -55q0 -21 6 -50q4 -20 4 -32q0 -35 -30 -62
q-26 -24 -62 -24q-40 0 -64 28q-24 27 -24 60q0 78 77 147q92 82 267 82q185 0 254 -113q41 -68 41 -214v-400q0 -87 21 -106q14 -12 40 -12q42 0 90 38zM588 549q-160 -59 -208 -93q-64 -42 -94 -88.5t-30 -103.5v-8q0 -80 50 -125q37 -32 79 -32q70 0 150 46q32 18 42 37
q11 21 11 70v297zM252 1274q43 0 75 -34q27 -29 27 -68q0 -44 -34 -75q-30 -26 -71 -26q-47 0 -75 36q-23 29 -23 66q0 43 35 77q26 24 66 24zM660 1274q43 0 75 -34q27 -30 27 -68q0 -44 -34 -75q-30 -26 -71 -26q-47 0 -75 36q-23 29 -23 66q0 43 35 77q26 24 66 24z" />
    <glyph glyph-name="atilde" unicode="&#xe3;" horiz-adv-x="909" 
d="M905 135v-53q-52 -57 -86 -76q-44 -26 -97 -26q-67 0 -98 41q-26 35 -34 108q-173 -149 -298 -149q-100 0 -164 69q-52 56 -52 149q0 113 74 178q93 83 257 149q79 32 181 73v125q0 170 -156 170q-81 0 -124 -45q-23 -25 -23 -55q0 -21 6 -50q4 -20 4 -32q0 -35 -30 -62
q-26 -24 -62 -24q-40 0 -64 28q-24 27 -24 60q0 78 77 147q92 82 267 82q185 0 254 -113q41 -68 41 -214v-400q0 -87 21 -106q14 -12 40 -12q42 0 90 38zM588 549q-160 -59 -208 -93q-64 -42 -94 -88.5t-30 -103.5v-8q0 -80 50 -125q37 -32 79 -32q70 0 150 46q32 18 42 37
q11 21 11 70v297zM732 1307h60q-29 -109 -74 -160q-51 -57 -141 -57q-48 0 -87 15q-29 10 -79 34l-47 23q-47 22 -85 22q-70 0 -104 -94h-59q22 93 66 142q60 65 140 65q70 0 144 -37l49 -25q63 -31 110 -31q33 0 57 22q23 21 50 81z" />
    <glyph glyph-name="aring" unicode="&#xe5;" horiz-adv-x="909" 
d="M905 135v-53q-52 -57 -86 -76q-44 -26 -97 -26q-67 0 -98 41q-26 35 -34 108q-173 -149 -298 -149q-100 0 -164 69q-52 56 -52 149q0 113 74 178q93 83 257 149q79 32 181 73v125q0 170 -156 170q-81 0 -124 -45q-23 -25 -23 -55q0 -21 6 -50q4 -20 4 -32q0 -35 -30 -62
q-26 -24 -62 -24q-40 0 -64 28q-24 27 -24 60q0 78 77 147q92 82 267 82q185 0 254 -113q41 -68 41 -214v-400q0 -87 21 -106q14 -12 40 -12q42 0 90 38zM588 549q-160 -59 -208 -93q-64 -42 -94 -88.5t-30 -103.5v-8q0 -80 50 -125q37 -32 79 -32q70 0 150 46q32 18 42 37
q11 21 11 70v297zM457 1478q87 0 149 -68q53 -59 53 -137q0 -90 -67 -150q-59 -53 -139 -53q-74 0 -130 47q-72 60 -72 158q0 89 68 151q57 52 138 52zM452 1408q-57 0 -95 -43q-36 -41 -36 -91q0 -59 46 -102q34 -32 85 -32q63 0 103 45q34 37 34 89q0 58 -45 99
q-38 35 -92 35z" />
    <glyph glyph-name="ccedilla" unicode="&#xe7;" horiz-adv-x="909" 
d="M463 -19l-43 -114q26 6 51 6q104 0 146 -50q32 -38 32 -90q0 -69 -52 -116q-65 -57 -204 -57q-89 0 -172 33l29 63q75 -25 134 -25q61 0 90 32q21 23 21 59q0 35 -20 53q-22 20 -88 20q-34 0 -57 -8l-15 11l77 185q-91 13 -165 65q-176 125 -176 387q0 254 160 393
q131 115 288 115q121 0 217 -57q47 -28 77 -78q22 -39 22 -77q0 -36 -29 -61q-28 -25 -67 -25q-73 0 -99 95l-12 45q-17 63 -41 79q-30 20 -79 20q-117 0 -194 -88q-39 -43 -62 -116.5t-23 -152.5q0 -100 31.5 -186t87.5 -137q85 -77 199 -77q113 0 201 84q35 33 87 109
l29 -19q-73 -140 -122 -191q-114 -122 -259 -129z" />
    <glyph glyph-name="eacute" unicode="&#xe9;" horiz-adv-x="909" 
d="M835 336l33 -15q-54 -140 -142 -222q-126 -119 -291 -119q-173 0 -277 117q-49 55 -78 147t-29 194q0 127 39.5 231t111.5 168q119 106 276 106q169 0 263 -118q53 -67 71 -151q10 -46 17 -107h-631q6 -167 57 -270q87 -176 264 -176q133 0 233 103q36 37 83 112z
M202 633h418q-18 122 -57 176q-42 60 -143 60q-184 0 -218 -236zM386 1038h-82l301 304q33 33 55 42q11 5 32 5q71 0 71 -65q0 -48 -62 -87z" />
    <glyph glyph-name="egrave" unicode="&#xe8;" horiz-adv-x="909" 
d="M835 336l33 -15q-54 -140 -142 -222q-126 -119 -291 -119q-173 0 -277 117q-49 55 -78 147t-29 194q0 127 39.5 231t111.5 168q119 106 276 106q169 0 263 -118q53 -67 71 -151q10 -46 17 -107h-631q6 -167 57 -270q87 -176 264 -176q133 0 233 103q36 37 83 112z
M202 633h418q-18 122 -57 176q-42 60 -143 60q-184 0 -218 -236zM609 1038h-82l-316 199q-59 37 -59 88q0 64 69 64q21 0 31 -5q23 -9 56 -42z" />
    <glyph glyph-name="ecircumflex" unicode="&#xea;" horiz-adv-x="909" 
d="M835 336l33 -15q-54 -140 -142 -222q-126 -119 -291 -119q-173 0 -277 117q-49 55 -78 147t-29 194q0 127 39.5 231t111.5 168q119 106 276 106q169 0 263 -118q53 -67 71 -151q10 -46 17 -107h-631q6 -167 57 -270q87 -176 264 -176q133 0 233 103q36 37 83 112z
M202 633h418q-18 122 -57 176q-42 60 -143 60q-184 0 -218 -236zM773 1038h-70l-250 211l-247 -211h-70l254 342h127z" />
    <glyph glyph-name="edieresis" unicode="&#xeb;" horiz-adv-x="909" 
d="M835 336l33 -15q-54 -140 -142 -222q-126 -119 -291 -119q-173 0 -277 117q-49 55 -78 147t-29 194q0 127 39.5 231t111.5 168q119 106 276 106q169 0 263 -118q53 -67 71 -151q10 -46 17 -107h-631q6 -167 57 -270q87 -176 264 -176q133 0 233 103q36 37 83 112z
M202 633h418q-18 122 -57 176q-42 60 -143 60q-184 0 -218 -236zM251 1274q43 0 75 -34q27 -29 27 -68q0 -44 -34 -75q-30 -26 -71 -26q-47 0 -75 36q-23 29 -23 66q0 43 35 77q26 24 66 24zM659 1274q43 0 75 -34q27 -30 27 -68q0 -44 -34 -75q-30 -26 -71 -26
q-47 0 -75 36q-23 29 -23 66q0 43 35 77q26 24 66 24z" />
    <glyph glyph-name="iacute" unicode="&#xed;" horiz-adv-x="569" 
d="M359 942l8 -6v-727q2 -130 37 -151q32 -21 115 -27v-31h-486v31q88 5 121 24q39 21 41 154v475q0 87 -26 110q-14 13 -41 13q-29 0 -71 -6l-16 -2v31zM217 1038h-82l301 304q33 33 55 42q11 5 32 5q71 0 71 -65q0 -48 -62 -87z" />
    <glyph glyph-name="igrave" unicode="&#xec;" horiz-adv-x="569" 
d="M359 942l8 -6v-727q2 -130 37 -151q32 -21 115 -27v-31h-486v31q88 5 121 24q39 21 41 154v475q0 87 -26 110q-14 13 -41 13q-29 0 -71 -6l-16 -2v31zM441 1038h-82l-316 199q-59 37 -59 88q0 64 69 64q21 0 31 -5q23 -9 56 -42z" />
    <glyph glyph-name="icircumflex" unicode="&#xee;" horiz-adv-x="569" 
d="M358 942l8 -6v-727q2 -130 37 -151q32 -21 115 -27v-31h-486v31q88 5 121 24q39 21 41 154v475q0 87 -26 110q-14 13 -41 13q-29 0 -71 -6l-16 -2v31zM604 1038h-70l-250 211l-247 -211h-70l254 342h127z" />
    <glyph glyph-name="idieresis" unicode="&#xef;" horiz-adv-x="569" 
d="M359 942l8 -6v-727q2 -130 37 -151q32 -21 115 -27v-31h-486v31q88 5 121 24q39 21 41 154v475q0 87 -26 110q-14 13 -41 13q-29 0 -71 -6l-16 -2v31zM124 1274q43 0 75 -34q27 -29 27 -68q0 -44 -34 -75q-30 -26 -71 -26q-47 0 -75 36q-23 29 -23 66q0 43 35 77
q26 24 66 24zM450 1274q43 0 75 -34q27 -30 27 -68q0 -44 -34 -75q-30 -26 -71 -26q-47 0 -75 36q-23 29 -23 66q0 43 35 77q26 24 66 24z" />
    <glyph glyph-name="ntilde" unicode="&#xf1;" 
d="M33 816v34q149 44 283 92l14 -4v-162q89 84 139 116q79 50 158 50q104 0 170 -70q72 -77 72 -237v-469q1 -88 33 -109q28 -20 92 -26v-31h-426v31q59 5 85 23q42 26 44 149v428q0 100 -37 149t-113 49q-62 0 -127 -45q-29 -20 -84 -71v-576q1 -58 30 -78q32 -22 105 -28
v-31h-434v31q62 5 89 23q36 23 38 130v508q0 95 -27 119q-13 13 -48 13t-56 -8zM789 1307h60q-29 -109 -74 -160q-51 -57 -141 -57q-48 0 -87 15q-29 10 -79 34l-47 23q-47 22 -85 22q-70 0 -104 -94h-59q22 93 66 142q60 65 140 65q70 0 144 -37l49 -25q63 -31 110 -31
q33 0 57 22q23 21 50 81z" />
    <glyph glyph-name="oacute" unicode="&#xf3;" 
d="M511 942q208 0 336 -143q115 -128 115 -319q0 -112 -42.5 -215t-118.5 -173q-121 -112 -294 -112q-199 0 -326 143q-122 138 -122 339q0 180 95 309q126 171 357 171zM480 885q-91 0 -160 -73q-77 -82 -77 -248q0 -229 89 -395q71 -132 204 -132q86 0 146 61
q96 96 96 312q0 184 -76 332q-35 68 -93.5 105.5t-128.5 37.5zM443 1038h-82l301 304q33 33 55 42q11 5 32 5q71 0 71 -65q0 -48 -62 -87z" />
    <glyph glyph-name="ograve" unicode="&#xf2;" 
d="M511 942q208 0 336 -143q115 -128 115 -319q0 -112 -42.5 -215t-118.5 -173q-121 -112 -294 -112q-199 0 -326 143q-122 138 -122 339q0 180 95 309q126 171 357 171zM480 885q-91 0 -160 -73q-77 -82 -77 -248q0 -229 89 -395q71 -132 204 -132q86 0 146 61
q96 96 96 312q0 184 -76 332q-35 68 -93.5 105.5t-128.5 37.5zM667 1038h-82l-316 199q-59 37 -59 88q0 64 69 64q21 0 31 -5q23 -9 56 -42z" />
    <glyph glyph-name="ocircumflex" unicode="&#xf4;" 
d="M511 942q208 0 336 -143q115 -128 115 -319q0 -112 -42.5 -215t-118.5 -173q-121 -112 -294 -112q-199 0 -326 143q-122 138 -122 339q0 180 95 309q126 171 357 171zM480 885q-91 0 -160 -73q-77 -82 -77 -248q0 -229 89 -395q71 -132 204 -132q86 0 146 61
q96 96 96 312q0 184 -76 332q-35 68 -93.5 105.5t-128.5 37.5zM830 1038h-70l-250 211l-247 -211h-70l254 342h127z" />
    <glyph glyph-name="odieresis" unicode="&#xf6;" 
d="M511 942q208 0 336 -143q115 -128 115 -319q0 -112 -42.5 -215t-118.5 -173q-121 -112 -294 -112q-199 0 -326 143q-122 138 -122 339q0 180 95 309q126 171 357 171zM480 885q-91 0 -160 -73q-77 -82 -77 -248q0 -229 89 -395q71 -132 204 -132q86 0 146 61
q96 96 96 312q0 184 -76 332q-35 68 -93.5 105.5t-128.5 37.5zM309 1274q43 0 75 -34q27 -29 27 -68q0 -44 -34 -75q-30 -26 -71 -26q-47 0 -75 36q-23 29 -23 66q0 43 35 77q26 24 66 24zM717 1274q43 0 75 -34q27 -30 27 -68q0 -44 -34 -75q-30 -26 -71 -26q-47 0 -75 36
q-23 29 -23 66q0 43 35 77q26 24 66 24z" />
    <glyph glyph-name="otilde" unicode="&#xf5;" 
d="M511 942q208 0 336 -143q115 -128 115 -319q0 -112 -42.5 -215t-118.5 -173q-121 -112 -294 -112q-199 0 -326 143q-122 138 -122 339q0 180 95 309q126 171 357 171zM480 885q-91 0 -160 -73q-77 -82 -77 -248q0 -229 89 -395q71 -132 204 -132q86 0 146 61
q96 96 96 312q0 184 -76 332q-35 68 -93.5 105.5t-128.5 37.5zM789 1307h60q-29 -109 -74 -160q-51 -57 -141 -57q-48 0 -87 15q-29 10 -79 34l-47 23q-47 22 -85 22q-70 0 -104 -94h-59q22 93 66 142q60 65 140 65q70 0 144 -37l49 -25q63 -31 110 -31q33 0 57 22
q23 21 50 81z" />
    <glyph glyph-name="uacute" unicode="&#xfa;" 
d="M981 102v-28q-142 -38 -281 -92l-8 4v170l-88 -88q-87 -88 -212 -88q-112 0 -183 75q-64 67 -64 191v516q-1 86 -39 109q-29 18 -88 22v29h299v-668q0 -70 51 -118q38 -37 94 -37q95 0 182 69q38 31 38 109v481q-2 84 -32 103q-35 21 -120 26v35h324v-703q1 -79 24 -95
q26 -21 93 -22h10zM443 1038h-82l301 304q33 33 55 42q11 5 32 5q71 0 71 -65q0 -48 -62 -87z" />
    <glyph glyph-name="ugrave" unicode="&#xf9;" 
d="M981 102v-28q-142 -38 -281 -92l-8 4v170l-88 -88q-87 -88 -212 -88q-112 0 -183 75q-64 67 -64 191v516q-1 86 -39 109q-29 18 -88 22v29h299v-668q0 -70 51 -118q38 -37 94 -37q95 0 182 69q38 31 38 109v481q-2 84 -32 103q-35 21 -120 26v35h324v-703q1 -79 24 -95
q26 -21 93 -22h10zM624 1038h-82l-316 199q-59 37 -59 88q0 64 69 64q21 0 31 -5q23 -9 56 -42z" />
    <glyph glyph-name="ucircumflex" unicode="&#xfb;" 
d="M981 102v-28q-142 -38 -281 -92l-8 4v170l-88 -88q-87 -88 -212 -88q-112 0 -183 75q-64 67 -64 191v516q-1 86 -39 109q-29 18 -88 22v29h299v-668q0 -70 51 -118q38 -37 94 -37q95 0 182 69q38 31 38 109v481q-2 84 -32 103q-35 21 -120 26v35h324v-703q1 -79 24 -95
q26 -21 93 -22h10zM805 1038h-70l-250 211l-247 -211h-70l254 342h127z" />
    <glyph glyph-name="udieresis" unicode="&#xfc;" 
d="M981 102v-28q-142 -38 -281 -92l-8 4v170l-88 -88q-87 -88 -212 -88q-112 0 -183 75q-64 67 -64 191v516q-1 86 -39 109q-29 18 -88 22v29h299v-668q0 -70 51 -118q38 -37 94 -37q95 0 182 69q38 31 38 109v481q-2 84 -32 103q-35 21 -120 26v35h324v-703q1 -79 24 -95
q26 -21 93 -22h10zM269 1274q43 0 75 -34q27 -29 27 -68q0 -44 -34 -75q-30 -26 -71 -26q-47 0 -75 36q-23 29 -23 66q0 43 35 77q26 24 66 24zM677 1274q43 0 75 -34q27 -30 27 -68q0 -44 -34 -75q-30 -26 -71 -26q-47 0 -75 36q-23 29 -23 66q0 43 35 77q26 24 66 24z" />
    <glyph glyph-name="dagger" unicode="&#x2020;" 
d="M538 -305h-45v252q0 76 -12 193t-30 214q-19 91 -45 164q86 90 86 379q-88 -7 -187 -44q-62 -25 -94 -25q-90 0 -90 88q0 45 27 69q24 21 52 21q38 0 102 -27q103 -43 190 -45q0 70 -3 91q-7 74 -46 171q-25 63 -25 98q0 37 33 66q27 25 62 25q41 0 70 -32q26 -28 26 -60
q0 -34 -25 -97q-39 -96 -46 -171q-3 -21 -3 -91q87 2 190 45q63 27 102 27q32 0 57 -27q22 -23 22 -64q0 -44 -26 -67q-22 -21 -50 -21q-43 0 -109 25q-102 38 -186 45q-1 -289 86 -379q-81 -190 -83 -571v-252z" />
    <glyph glyph-name="degree" unicode="&#xb0;" horiz-adv-x="819" 
d="M415 1385q126 0 213 -96q75 -83 75 -197q0 -132 -96 -218q-83 -75 -197 -75q-132 0 -219 96q-74 82 -74 199q0 129 96 216q83 75 202 75zM407 1315q-88 0 -152 -71q-58 -65 -58 -152q0 -101 74 -168q61 -55 139 -55q84 0 145 61q68 67 68 163q0 99 -74 167
q-60 55 -142 55z" />
    <glyph glyph-name="cent" unicode="&#xa2;" 
d="M826 1186l-96 -276q72 -29 109 -72q44 -49 44 -100q0 -45 -29 -72q-23 -21 -59 -21q-38 0 -65 23q-25 23 -54 84l-207 -596q66 -24 122 -24q113 0 202 82q39 36 98 122l27 -16q-61 -125 -102 -179q-123 -159 -289 -159q-48 0 -115 18l-100 -283h-70l105 308
q-97 55 -144 120q-94 128 -94 303q0 235 158 379q126 115 293 115q39 0 104 -10l90 254h72zM406 201l235 662q-50 18 -95 18q-115 0 -195 -85q-84 -89 -84 -263q0 -144 59 -241q24 -40 80 -91z" />
    <glyph glyph-name="sterling" unicode="&#xa3;" 
d="M705 764v-92h-249v-55l3 -75q0 -52 -51 -315q172 -71 305 -71q138 0 231 100q31 33 48 33q12 0 12 -10q0 -26 -28.5 -83t-58.5 -91q-105 -119 -256 -119q-85 0 -183 52q-40 22 -113 73q-52 -63 -88 -88q-53 -39 -114 -39q-70 0 -108 42q-30 32 -30 84q0 67 46 110
q51 46 140 46q41 0 95 -10q6 22 6 42q0 60 -34 306q-4 27 -9 68h-221v92h219q-15 73 -15 142q0 123 36.5 224t102.5 160q107 95 261 95q149 0 221 -82q45 -50 45 -109q0 -52 -34 -83q-28 -25 -69 -25q-45 0 -64 32q-14 24 -15 105q-2 107 -115 107q-84 0 -132 -58
q-28 -34 -45.5 -95t-17.5 -128q0 -102 23 -285h256zM180 193q-102 0 -102 -76q0 -35 24 -56q23 -20 61 -20q55 0 94 47q34 41 34 69q0 13 -36 24.5t-75 11.5z" />
    <glyph glyph-name="section" unicode="&#xa7;" 
d="M597 256q103 -89 140 -140q53 -73 53 -159q0 -115 -79 -188q-77 -72 -215 -72q-71 0 -135 24t-101 65q-47 52 -47 115q0 52 35 83q31 28 76 28t73 -28q25 -24 25 -58q0 -44 -47 -83q-23 -19 -23 -31q0 -17 21 -36q40 -36 124 -36q94 0 140 52q38 44 38 105q0 48 -15 74
q-43 77 -167 163q-207 141 -282 250q-68 99 -68 201q0 114 79 186q63 58 157 58q22 0 50 -2q-103 86 -143 136q-61 78 -61 172q0 111 75 178q81 72 209 72q139 0 215 -82q48 -51 48 -118q0 -56 -32 -85q-27 -25 -74 -25q-43 0 -69 25q-26 26 -26 63q0 53 53 92q17 12 17 21
q0 18 -18 35q-33 31 -109 31q-93 0 -136 -50q-38 -44 -38 -96q0 -39 19.5 -79.5t49.5 -65.5l281 -232q182 -150 182 -318q0 -116 -78 -189q-61 -57 -158 -57q-17 0 -39 1zM388 784q-38 0 -73 -21q-63 -38 -63 -114q0 -70 50 -132q67 -83 173 -160q79 -58 150 -58
q63 0 105 47q36 40 36 86q0 84 -109 192q-73 73 -146 116.5t-123 43.5z" />
    <glyph glyph-name="bullet" unicode="&#x2022;" horiz-adv-x="717" 
d="M362 955q133 0 216 -107q57 -75 57 -169q0 -124 -92 -206q-78 -71 -185 -71q-123 0 -205 91q-71 78 -71 189q0 121 90 202q78 71 190 71z" />
    <glyph glyph-name="paragraph" unicode="&#xb6;" horiz-adv-x="928" 
d="M487 1311v-1626h-315v45q98 7 137 32q19 13 24 26q19 24 19 149v622q-96 4 -150 18.5t-104 50.5q-143 100 -143 349q0 188 89 279q99 100 339 100h538v-39q-102 -10 -139 -34q-39 -23 -41 -150v-1219q2 -125 42 -150q39 -25 139 -34v-45h-316v1626h-119zM352 604v707
q-105 -9 -154 -45q-87 -65 -87 -281q0 -96 17.5 -177t45.5 -116q45 -56 107 -75q24 -8 71 -13z" />
    <glyph glyph-name="germandbls" unicode="&#xdf;" 
d="M582 771q95 -17 148 -39t102 -64q127 -109 127 -287q0 -88 -34.5 -169.5t-95.5 -138.5q-98 -91 -236 -91q-113 0 -164 60q-35 41 -35 89q0 47 31 75q25 23 60 23q37 0 61 -25q23 -24 26 -57l4 -45q3 -37 18 -49q14 -12 41 -12q49 0 79 35q22 25 37.5 92.5t15.5 139.5
q0 414 -270 424q-66 2 -66 34q0 25 59 32q100 11 147.5 74.5t47.5 185.5q0 78 -21 145.5t-54 98.5q-45 42 -111 42q-76 0 -124 -52q-53 -58 -53 -168v-1124h-297v31q63 4 88 20q36 21 37 121v758q0 203 62 312q91 157 303 157q83 0 157.5 -29t120.5 -78q70 -77 70 -205
q0 -108 -56 -172q-43 -50 -103 -83q-52 -29 -122 -61z" />
    <glyph glyph-name="registered" unicode="&#xae;" horiz-adv-x="1556" 
d="M790 1385q244 0 437 -161q119 -100 185.5 -244.5t66.5 -304.5q0 -152 -60.5 -289.5t-170.5 -237.5q-196 -177 -467 -177q-151 0 -287.5 60t-235.5 171q-180 199 -180 479q0 311 233 524q197 180 479 180zM774 1299q-117 0 -227 -51.5t-194 -146.5q-162 -181 -162 -424
q0 -133 54 -256t152 -212q167 -152 383 -152q121 0 231.5 51t193.5 145q161 183 161 423q0 127 -49 247t-138 207q-170 169 -405 169zM449 1034v31h362q130 0 192 -70q43 -48 43 -119q0 -148 -161 -212l116 -162q84 -116 156 -175v-16h-131q-47 -9 -141 162q-24 44 -107 170
h-98v-203q1 -74 15 -81q17 -10 85 -17v-31h-331v31q68 7 85 17q14 7 15 81v494q-1 76 -15 83q-17 10 -85 17zM680 1026v-344h88q63 0 99 40q42 46 42 142q0 162 -145 162h-84z" />
    <glyph glyph-name="copyright" unicode="&#xa9;" horiz-adv-x="1556" 
d="M791 1385q144 0 276 -60t231 -170q181 -202 181 -479q0 -153 -60 -290.5t-171 -237.5q-196 -177 -467 -177q-151 0 -287.5 60t-235.5 171q-180 199 -180 474q0 266 165 460q213 249 548 249zM773 1299q-184 0 -341 -123q-122 -95 -185 -240q-56 -125 -56 -259
q0 -133 54 -256t152 -212q167 -152 383 -152q120 0 231 51t194 145q161 183 161 430q0 131 -54 252.5t-153 213.5q-160 150 -386 150zM1088 506h33l-35 -155q-2 -8 -21 -16q-105 -46 -268 -46q-96 0 -179 33.5t-136 94.5q-93 106 -93 260q0 187 130 304q121 108 322 108
q111 0 218 -44q29 -12 29 -36v-143h-35q-27 182 -221 182q-131 0 -204 -81q-36 -41 -58.5 -117t-22.5 -160q0 -94 26.5 -172t72.5 -120q75 -68 187 -68q124 0 196 80q28 30 59 96z" />
    <glyph glyph-name="trademark" unicode="&#x2122;" horiz-adv-x="2007" 
d="M487 1315v-635q1 -84 15 -92q18 -11 87 -19v-41h-350v41q69 8 87 19q15 8 16 92v635h-101q-55 0 -87 -32t-52 -107h-41v180h707v-180h-41q-20 70 -50 104q-32 35 -88 35h-102zM1362 524l-310 636v-458q2 -89 32 -110q24 -17 77 -23v-41h-269v41q51 6 75 23q30 21 32 110
v511q-23 49 -62 77q-36 23 -79 25v41h247l316 -633l328 633h211v-41q-56 -4 -83 -23q-31 -21 -32 -90v-522q1 -84 15 -92q18 -11 87 -19v-41h-348v41q69 8 86 18q14 9 15 93v484l-316 -640h-22z" />
    <glyph glyph-name="acute" unicode="&#xb4;" horiz-adv-x="682" 
d="M272 1038h-82l301 304q33 33 55 42q11 5 32 5q71 0 71 -65q0 -48 -62 -87z" />
    <glyph glyph-name="dieresis" unicode="&#xa8;" horiz-adv-x="682" 
d="M138 1274q43 0 75 -34q27 -29 27 -68q0 -44 -34 -75q-30 -26 -71 -26q-47 0 -75 36q-23 29 -23 66q0 43 35 77q26 24 66 24zM546 1274q43 0 75 -34q27 -30 27 -68q0 -44 -34 -75q-30 -26 -71 -26q-47 0 -75 36q-23 29 -23 66q0 43 35 77q26 24 66 24z" />
    <glyph glyph-name="notequal" unicode="&#x2260;" horiz-adv-x="1155" 
d="M722 656l-138 -275h509v-135h-577l-127 -252l-121 61l97 191h-304v135h371l138 275h-509v135h577l127 252l121 -61l-96 -191h303v-135h-371z" />
    <glyph glyph-name="AE" unicode="&#xc6;" horiz-adv-x="1821" 
d="M1671 1067h-47q-11 81 -28 115q-28 56 -93 79q-47 21 -251 21h-179q-31 0 -42 -13q-13 -15 -13 -48v-471h227q197 3 233 62q29 41 38 136h43v-479h-43q-12 102 -41 147q-36 57 -160 58h-297v-487q1 -80 18 -92q21 -16 123 -17h156q117 0 183 22t115 77q40 44 105 167h49
l-90 -344h-1044v39l35 4q99 13 121 43q25 33 26 135v311h-360l-57 -108q-132 -252 -132 -325q0 -46 139 -60h3v-39h-408v39q48 8 74 21q46 22 106 139l502 991q18 36 18 58q0 24 -25 39q-40 24 -159 28v41h1155v-289zM489 612h326v654z" />
    <glyph glyph-name="Oslash" unicode="&#xd8;" horiz-adv-x="1479" 
d="M1348 1503l-180 -266q108 -100 155 -190q86 -161 86 -368q0 -166 -57 -307.5t-162 -234.5q-186 -166 -453 -166q-165 0 -295 66q-22 11 -65 37l-162 -238h-100l195 285q-109 99 -156 190q-84 161 -84 365q0 168 56.5 308t162.5 233q189 168 454 168q159 0 290 -64
q23 -11 67 -37l148 219h100zM1080 1106l-631 -926q59 -64 111 -91q82 -44 179 -44q154 0 263 102q69 64 108 157q66 159 66 371q0 214 -64 366q-6 16 -32 65zM398 252l630 926q-61 64 -114 91q-82 42 -174 42q-151 0 -262 -103q-70 -65 -108 -156q-67 -160 -67 -376
q0 -211 62 -359q6 -16 33 -65z" />
    <glyph glyph-name="infinity" unicode="&#x221e;" horiz-adv-x="1460" 
d="M731 620q172 228 383 228q138 0 223 -92q74 -81 74 -213q0 -153 -97 -240q-75 -68 -186 -68q-209 0 -397 231q-41 -50 -62 -73q-143 -157 -326 -157q-134 0 -218 91q-74 81 -74 212q0 150 97 234q86 75 203 75q198 0 380 -228zM841 544q86 -95 139 -127q73 -44 147 -44
q71 0 109 44q42 49 42 123q0 86 -52 132q-45 39 -101 39q-88 0 -177 -62q-23 -16 -107 -105zM624 543q-108 106 -162 136q-57 32 -116 32q-77 0 -122 -48q-40 -42 -40 -121q0 -89 51 -133q43 -36 98 -36q83 0 167 57q24 15 124 113z" />
    <glyph glyph-name="plusminus" unicode="&#xb1;" horiz-adv-x="1155" 
d="M61 0v135h1032v-135h-1032zM510 713v450h135v-450h448v-135h-448v-328h-135v328h-449v135h449z" />
    <glyph glyph-name="lessequal" unicode="&#x2264;" horiz-adv-x="1155" 
d="M1097 209l-1040 471v136l1040 471v-148l-860 -391l860 -391v-148zM1097 0h-1040v135h1040v-135z" />
    <glyph glyph-name="greaterequal" unicode="&#x2265;" horiz-adv-x="1155" 
d="M57 209v148l861 391l-861 391v148l1040 -471v-136zM57 0v135h1040v-135h-1040z" />
    <glyph glyph-name="yen" unicode="&#xa5;" 
d="M389 373h-357v82h357v155l-14 29h-343v82h295l-194 354q-103 184 -152 215q-36 24 -90 27v39h498v-39q-133 0 -133 -57q0 -45 26 -94l242 -453l229 451q29 56 29 93q0 26 -29 43.5t-74 17.5q-13 0 -30 -1v39h399v-39q-67 -17 -106 -43q-75 -54 -135 -176l-189 -377h299
v-82h-340l-14 -29v-155h354v-82h-354v-150q2 -131 50 -159q36 -22 114 -25v-39h-500v39q81 4 116 27q43 26 46 180v127z" />
    <glyph glyph-name="mu" unicode="&#xb5;" 
d="M881 922v-733q0 -96 27 -120q16 -14 39 -14q40 0 102 58v-17q-47 -61 -80 -84q-50 -33 -113 -33q-142 0 -149 184q-56 -87 -108 -124q-81 -59 -172 -59q-100 0 -174 66q-30 26 -65 86q10 -85 38 -199q37 -142 37 -222q0 -157 -94 -157q-39 0 -62 26q-33 38 -33 117
q0 76 25 215q25 146 25 199v811h180v-627q0 -99 54 -147q47 -41 118 -41q99 0 175 66q25 22 50 63v686h180z" />
    <glyph glyph-name="partialdiff" unicode="&#x2202;" horiz-adv-x="1012" 
d="M134 1484q157 58 271 58q187 0 332 -148q209 -213 209 -549q0 -364 -138 -634q-57 -111 -168 -178q-89 -53 -199 -53q-173 0 -287 127q-101 112 -101 273q0 97 40 191.5t111 166.5q105 106 248 106q87 0 167 -39q50 -24 143 -97q14 129 14 222q0 216 -85 377
q-34 62 -99 101q-62 37 -135 37q-108 0 -238 -65zM749 639q-58 58 -96 80q-57 33 -118 33q-110 0 -192 -96q-51 -60 -81.5 -152.5t-30.5 -188.5q0 -113 47 -197q43 -75 135 -75q53 0 103.5 29.5t84.5 79.5q84 122 114 282q39 200 34 205z" />
    <glyph glyph-name="summation" unicode="&#x2211;" horiz-adv-x="1460" 
d="M361 1456l385 -758l-412 -721h673q112 0 177 15t104 49q42 37 83 137h53l-111 -430h-1284l495 835l-477 957h1227l21 -338h-54q-14 77 -27.5 115t-38.5 67q-52 69 -266 72h-548z" />
    <glyph glyph-name="product" unicode="&#x220f;" horiz-adv-x="1686" 
d="M51 -254v54h6q118 1 156 71q18 32 21 71q3 34 3 94v1212q0 99 -8 124q-26 108 -172 112h-6v54h1593v-54h-6q-118 -1 -156 -71q-18 -32 -21 -71q-3 -33 -3 -94v-1212q0 -98 8 -123q26 -109 172 -113h6v-54h-594v54h6q119 1 156 71q19 32 22 71q3 34 3 94v1180
q-2 159 -31 192t-128 40q-134 2 -234 2q-219 -1 -255 -4q-84 -10 -105 -44q-25 -39 -26 -186v-1180q0 -99 8 -123q27 -109 173 -113h6v-54h-594z" />
    <glyph glyph-name="pi" unicode="&#x3c0;" horiz-adv-x="1124" 
d="M61 713h-41q37 132 108 221q42 52 88 69q46 20 139 21h716v-182h-257q-25 -197 -25 -458q0 -95 29 -146q37 -64 102 -64q101 0 116 150h49q-6 -121 -37 -187q-38 -83 -100 -129q-49 -35 -105 -35q-71 0 -121 56q-36 41 -59 126.5t-23 177.5q0 215 42 509h-223l-25 -264
q-35 -384 -70 -483q-41 -122 -135 -122q-50 0 -84 37q-28 32 -28 75q0 34 18 64t65 73q51 48 74.5 85.5t28.5 80.5l54 454h-95q-58 0 -93.5 -16t-68.5 -56q-18 -24 -39 -57z" />
    <glyph glyph-name="integral" unicode="&#x222b;" horiz-adv-x="561" 
d="M368 1180v-704q0 -328 -51 -535q-17 -68 -65 -112q-52 -48 -127 -48q-69 0 -100 36q-21 25 -21 53q0 30 23 50q19 18 48 18q40 0 64 -44q20 -36 43 -36q28 0 46 32.5t18 84.5q0 59 -6 154q-9 153 -9 347v705q0 326 51 535q17 68 65 112q53 48 128 48q68 0 99 -36
q21 -25 21 -55t-22 -49q-20 -18 -49 -18q-33 0 -57 26q-6 7 -28 42q-8 13 -27 13q-27 0 -43 -32t-16 -84q0 -57 6 -155q9 -153 9 -348z" />
    <glyph glyph-name="ordfeminine" unicode="&#xaa;" horiz-adv-x="565" 
d="M553 906v-37q-34 -35 -55 -46q-29 -16 -65 -16q-45 0 -66 26q-18 21 -27 64q-100 -90 -186 -90q-70 0 -113 47q-33 36 -33 92q0 67 45 106q60 51 161 88q47 18 107 40v61q0 87 -74 87q-51 0 -83 -28q-9 -8 -9 -19q0 -12 4 -29q2 -10 2 -16q0 -20 -17 -36q-19 -16 -47 -16
q-30 0 -49 21q-16 18 -16 43q0 47 42 85q26 23 76.5 37.5t104.5 14.5q214 0 214 -197v-235q0 -58 10 -67q6 -5 16 -5q29 0 58 25zM300 926q21 19 24 45v158q-123 -43 -166 -85q-21 -19 -21 -52q0 -43 29 -70q21 -19 48 -19q38 0 86 23z" />
    <glyph glyph-name="ordmasculine" unicode="&#xba;" horiz-adv-x="635" 
d="M326 1385q147 0 231 -94q65 -74 65 -180q0 -136 -99 -226q-85 -78 -213 -78q-143 0 -227 94q-71 79 -71 191q0 71 29.5 133t79.5 99q85 61 205 61zM303 1317q-60 0 -104 -43q-38 -38 -38 -108q0 -128 51 -222q37 -69 116 -69q71 0 108 46.5t37 135.5q0 99 -45 182
q-42 78 -125 78z" />
    <glyph glyph-name="Omega" unicode="&#x2126;" horiz-adv-x="1573" 
d="M668 0h-598v313h49q9 -53 36 -88q29 -40 106 -41h299l-7 78q-156 55 -250 146q-164 156 -164 376q0 121 57 243t156 213q181 165 437 165q294 0 484 -214q79 -88 122.5 -195t43.5 -212q0 -220 -163 -376q-96 -91 -251 -146l-7 -78h299q77 1 106 41q27 35 36 88h49v-313
h-598l36 316q87 50 142 121q121 156 121 348q0 173 -89 329q-58 101 -150 154q-82 47 -181 47q-103 0 -189.5 -52.5t-141.5 -148.5q-89 -156 -89 -329q0 -104 40.5 -207t112.5 -178q42 -45 110 -84z" />
    <glyph glyph-name="ae" unicode="&#xe6;" horiz-adv-x="1366" 
d="M1269 316l25 -10q-76 -162 -151 -228q-110 -98 -253 -98q-125 0 -206 76q-26 24 -58 73q-87 -73 -140 -102q-83 -47 -170 -47q-119 0 -183 75q-55 63 -55 150q0 72 42 131q57 83 262 167l177 73l3 128q3 86 -24 143q-22 46 -103 46q-80 0 -115 -40q-25 -27 -23 -56l1 -18
v-23l3 -43q0 -45 -27 -69q-23 -21 -61 -21q-90 0 -90 99q0 80 69 139q42 36 112.5 58.5t143.5 22.5q106 0 178 -43q26 -16 64 -49q59 46 97 63q64 29 146 29q175 0 250 -111q55 -81 69 -185q5 -34 9 -78h-536q0 -153 11 -221t44 -128q25 -46 78 -74t116 -28q112 0 203 84
q39 36 92 115zM560 519q-137 -50 -184 -77q-74 -43 -100 -93q-20 -41 -20 -92q0 -93 55 -143q38 -36 80 -36q67 0 149 45q39 22 58 50q2 3 2 7l-40 232v107zM727 629h340q-3 127 -42 194q-36 60 -120 60q-91 0 -133 -64q-39 -61 -45 -190z" />
    <glyph glyph-name="oslash" unicode="&#xf8;" 
d="M894 1128l-133 -255q82 -57 123 -119q78 -120 78 -275q0 -112 -42.5 -214.5t-118.5 -172.5q-120 -112 -297 -112q-94 0 -189 43l-133 -252h-76l150 286q-89 71 -129 141q-68 120 -68 267q0 108 40 205.5t111 162.5q119 109 300 109q91 0 188 -36l117 222h79zM696 750
l-330 -627q72 -86 168 -86q97 0 162 73q37 41 59.5 125.5t22.5 180.5q0 181 -82 334zM323 189l326 622q-77 74 -163 74q-99 0 -166 -73q-35 -38 -56 -104.5t-21 -139.5q0 -208 80 -379z" />
    <glyph glyph-name="questiondown" unicode="&#xbf;" horiz-adv-x="909" 
d="M409 602h35q-3 -139 -61 -291l-57 -131q-76 -173 -76 -322q0 -51 22.5 -103.5t58.5 -85.5q58 -54 141 -54q101 0 164 63q30 30 30 63q0 25 -35 64q-44 47 -44 88q0 39 26 64q21 20 59 20q98 0 98 -127q0 -130 -95 -211q-101 -85 -237 -85q-128 0 -239 69
q-138 85 -138 247q0 118 92 258q29 44 123 159q80 98 113 219q8 30 20 96zM425 958q49 0 83 -37q25 -28 25 -68q0 -50 -36 -84q-32 -29 -75 -29q-48 0 -79 36q-28 32 -28 78q0 47 32 76q31 28 78 28z" />
    <glyph glyph-name="exclamdown" unicode="&#xa1;" horiz-adv-x="682" 
d="M296 578h26l18 -221q13 -147 36 -282q40 -241 40 -368q0 -39 -13 -75.5t-33 -55.5q-24 -22 -62 -22q-109 0 -109 163q0 38 5 77zM308 960q50 0 83 -36q26 -28 26 -69q0 -50 -36 -84q-32 -29 -75 -29q-48 0 -79 36q-28 32 -28 78q0 47 32 76q31 28 77 28z" />
    <glyph glyph-name="logicalnot" unicode="&#xac;" horiz-adv-x="1155" 
d="M958 221v435h-897v135h1032v-570h-135z" />
    <glyph glyph-name="radical" unicode="&#x221a;" horiz-adv-x="1124" 
d="M754 -133l-514 1053l-195 -97l-49 105l334 162l381 -773l252 1575l114 -18z" />
    <glyph glyph-name="florin" unicode="&#x192;" 
d="M884 834l-20 -63h-246q-26 -194 -34 -257q-39 -307 -73 -451q-65 -277 -160 -374q-74 -75 -174 -75q-85 0 -129 50q-34 40 -34 91q0 44 28 68t67 24q36 0 55 -22q18 -20 18 -51q0 -27 -19 -56q-12 -19 -12 -28q0 -27 42 -27q138 0 169 356l31 353q16 179 47 368l4 31
h-227l20 63h219q25 160 56 250.5t91 176.5q39 57 100 90.5t126 33.5q90 0 140 -56q34 -38 34 -83q0 -41 -31 -69q-26 -24 -63 -24t-59 25q-19 22 -19 44q0 21 16 50q11 19 11 30q0 24 -41 24q-68 0 -98 -54q-60 -111 -77 -283q-5 -52 -16 -155h258z" />
    <glyph glyph-name="approxequal" unicode="&#x2248;" horiz-adv-x="1108" 
d="M1028 378q-23 -32 -36 -49q-97 -126 -215 -126q-85 0 -183 44q-20 8 -129 67q-55 29 -122 29q-51 0 -87 -28q-26 -20 -63 -76l-111 64q23 32 36 49q98 126 215 126q85 0 183 -44q20 -9 129 -67q55 -29 122 -29q51 0 88 28q25 20 62 77zM1028 733q-23 -32 -36 -49
q-97 -126 -215 -126q-86 0 -183 44q-20 8 -129 67q-54 29 -122 29q-51 0 -87 -28q-26 -20 -63 -76l-111 64q23 32 36 49q98 126 215 126q86 0 183 -44q20 -8 129 -67q55 -29 122 -29q51 0 88 28q25 20 62 77z" />
    <glyph glyph-name="Delta" unicode="&#x2206;" horiz-adv-x="1253" 
d="M12 0l657 1408l576 -1408h-1233zM157 104h824l-388 939z" />
    <glyph glyph-name="guillemotleft" unicode="&#xab;" 
d="M86 455l134 120q33 29 38 33q28 25 48 44q118 103 125 121q65 79 89 79q21 0 21 -21q0 -19 -33 -73t-78 -108q-94 -113 -154 -191l21 -27q242 -306 242 -346q0 -18 -19 -18q-11 0 -22 13q-160 156 -349 318zM479 455l134 120q33 28 38 33q29 26 48 44q121 106 126 121
q64 79 88 79q21 0 21 -21q0 -20 -32.5 -73.5t-78.5 -107.5q-88 -106 -153 -191q13 -19 20 -27q242 -306 242 -346q0 -18 -19 -18q-11 0 -22 13q-159 156 -348 318z" />
    <glyph glyph-name="guillemotright" unicode="&#xbb;" 
d="M938 455l-64 -56q-192 -166 -348 -318q-11 -13 -22 -13q-19 0 -19 18q0 40 242 346q7 8 20 27q-66 86 -153 191q-74 88 -108 165q-3 7 -3 16q0 21 21 21q24 0 89 -79q3 -14 125 -121q22 -21 48 -44q4 -4 38 -33zM545 455l-64 -56q-192 -165 -348 -318q-11 -13 -22 -13
q-19 0 -19 18q0 40 242 346q6 8 20 27q-67 87 -153 191q-74 88 -108 165q-3 7 -3 16q0 21 21 21q24 0 88 -79q6 -16 125 -121q19 -17 49 -44q4 -4 38 -33z" />
    <glyph glyph-name="ellipsis" unicode="&#x2026;" horiz-adv-x="2048" 
d="M341 204q47 0 83 -39q30 -33 30 -77q0 -48 -36 -80q-36 -31 -79 -31q-49 0 -84 37q-28 30 -28 75q0 52 38 86q32 29 76 29zM1023 204q47 0 83 -39q30 -33 30 -77q0 -48 -36 -80q-36 -31 -79 -31q-49 0 -84 37q-28 30 -28 75q0 52 38 86q32 29 76 29zM1705 204
q47 0 83 -39q30 -33 30 -77q0 -48 -36 -80q-36 -31 -79 -31q-49 0 -84 37q-28 30 -28 75q0 52 38 86q32 29 76 29z" />
    <glyph glyph-name="glyph172" 
 />
    <glyph glyph-name="Agrave" unicode="&#xc0;" horiz-adv-x="1479" 
d="M1446 39v-39h-522v39q86 1 115 18q28 16 28 50q0 48 -39 139l-84 196h-536l-94 -239q-16 -41 -16 -80q0 -83 139 -84v-39h-406v39q39 2 66 15q25 13 34 25q30 37 69.5 112.5t84.5 183.5l426 1005h41l510 -1163q70 -154 122 -167q22 -8 62 -11zM443 526h473l-238 564z
M896 1473h-82l-316 199q-59 37 -59 87q0 64 69 64q40 0 87 -47z" />
    <glyph glyph-name="Atilde" unicode="&#xc3;" horiz-adv-x="1479" 
d="M1446 39v-39h-522v39q86 1 115 18q28 16 28 50q0 48 -39 139l-84 196h-536l-94 -239q-16 -41 -16 -80q0 -83 139 -84v-39h-406v39q39 2 66 15q25 13 34 25q30 37 69.5 112.5t84.5 183.5l426 1005h41l510 -1163q70 -154 122 -167q22 -8 62 -11zM443 526h473l-238 564z
M1018 1741h60q-29 -109 -74 -160q-51 -57 -141 -57q-48 0 -87 15q-29 10 -79 34l-47 23q-47 22 -85 22q-70 0 -104 -94h-59q22 94 66 142q60 65 140 65q70 0 144 -37l49 -25q63 -31 110 -31q33 0 57 22q24 21 50 81z" />
    <glyph glyph-name="Otilde" unicode="&#xd5;" horiz-adv-x="1479" 
d="M750 1385q139 0 265.5 -56t220.5 -158q173 -189 173 -493q0 -167 -57 -308t-163 -234q-186 -165 -450 -165q-144 0 -273 54.5t-221 153.5q-82 89 -128.5 223.5t-46.5 282.5q0 163 56.5 300.5t162.5 231.5q188 168 461 168zM733 1311q-165 0 -286 -133
q-65 -71 -104.5 -208t-39.5 -290q0 -244 93 -431q47 -95 151 -154q88 -50 194 -50q159 0 267 109q71 71 101 148q67 174 67 389q0 233 -94 414q-50 96 -152 155q-88 51 -197 51zM1018 1741h60q-29 -109 -74 -160q-51 -57 -141 -57q-48 0 -87 15q-29 10 -79 34l-47 23
q-47 22 -85 22q-70 0 -104 -94h-59q22 94 66 142q60 65 140 65q70 0 144 -37l49 -25q63 -31 110 -31q33 0 57 22q24 21 50 81z" />
    <glyph glyph-name="OE" unicode="&#x152;" horiz-adv-x="1821" 
d="M1716 1067h-47q-12 81 -30 116q-30 58 -94 79q-46 20 -220 20h-105q-112 -1 -125 -17q-8 -8 -8 -32v-483h212q197 3 233 63q29 41 38 137h43v-480h-43q-12 102 -41 147q-35 55 -160 57h-282v-502q1 -70 31 -82q21 -12 84 -12l254 4q111 2 197 93q39 41 110 169h49
l-90 -344h-717q-94 0 -186 -6q-41 -1 -62 -2q-71 -4 -120 -4q-234 0 -393 158q-183 181 -183 514q0 177 54 322.5t152 232.5q173 153 433 153q31 0 133 -6q144 -6 215 -6h668v-289zM882 268v811q0 123 -55 171q-50 44 -148 44q-193 0 -291 -171q-97 -170 -97 -456
q0 -277 88 -430q99 -173 299 -173q117 0 162 52q42 49 42 152z" />
    <glyph glyph-name="oe" unicode="&#x153;" horiz-adv-x="1479" 
d="M1390 297l22 -12q-45 -93 -77.5 -140.5t-81.5 -90.5q-84 -74 -207 -74q-103 0 -172 59q-49 41 -90 135q-50 -90 -100 -129q-83 -65 -202 -65q-183 0 -307 134q-114 123 -114 333q0 165 80 303q111 192 333 192q112 0 202 -55q45 -28 110 -100q49 67 90 98q74 57 176 57
q78 0 146.5 -33.5t112.5 -92.5q48 -66 60 -147q6 -43 9 -101h-521q7 -134 23.5 -206t57.5 -142q27 -47 77 -75t107 -28q97 0 186 85q33 31 80 95zM461 883q-81 0 -147 -68q-70 -73 -70 -293q0 -188 56 -342q19 -55 62 -97q50 -50 128 -50q86 0 137 60q33 39 54 125t21 182
q0 483 -241 483zM857 629h328v55q0 102 -62 161q-40 38 -100 38q-161 0 -166 -254z" />
    <glyph glyph-name="endash" unicode="&#x2013;" 
d="M0 512h1024v-100h-1024v100z" />
    <glyph glyph-name="emdash" unicode="&#x2014;" horiz-adv-x="2048" 
d="M0 512h2048v-100h-2048v100z" />
    <glyph glyph-name="quotedblleft" unicode="&#x201c;" horiz-adv-x="909" 
d="M318 1385l18 -39q-168 -116 -168 -218q0 -28 28 -28q4 0 16 3q18 5 39 5q65 0 99 -36q23 -25 23 -68q0 -55 -36 -87q-33 -30 -85 -30q-70 0 -117 52q-47 51 -47 130q0 129 125 245q44 41 105 71zM793 1385l18 -39q-168 -116 -168 -218q0 -28 28 -28q4 0 16 3q18 5 39 5
q65 0 99 -36q23 -25 23 -68q0 -55 -36 -87q-33 -30 -85 -30q-70 0 -117 52q-47 51 -47 130q0 129 125 245q44 41 105 71z" />
    <glyph glyph-name="quotedblright" unicode="&#x201d;" horiz-adv-x="909" 
d="M116 887l-18 39q83 57 125.5 112.5t42.5 105.5q0 28 -28 28q-3 0 -16 -3q-20 -5 -39 -5q-65 0 -99 36q-23 25 -23 69q0 55 36 86q33 30 84 30q70 0 118 -52q47 -51 47 -130q0 -129 -125 -246q-44 -40 -105 -70zM591 887l-18 39q83 57 125.5 112.5t42.5 105.5q0 28 -28 28
q-3 0 -16 -3q-20 -5 -39 -5q-65 0 -99 36q-23 25 -23 69q0 55 36 86q33 30 84 30q70 0 118 -52q47 -51 47 -130q0 -129 -125 -246q-44 -40 -105 -70z" />
    <glyph glyph-name="quoteleft" unicode="&#x2018;" horiz-adv-x="682" 
d="M465 1385l19 -39q-168 -116 -168 -218q0 -28 28 -28q4 0 16 3q18 5 39 5q65 0 99 -36q23 -25 23 -68q0 -55 -36 -87q-33 -30 -85 -30q-70 0 -117 52q-47 51 -47 130q0 129 125 245q44 41 104 71z" />
    <glyph glyph-name="quoteright" unicode="&#x2019;" horiz-adv-x="682" 
d="M217 887l-18 39q83 57 125.5 112t42.5 106q0 28 -28 28q-3 0 -16 -3q-20 -5 -39 -5q-64 0 -99 36q-23 25 -23 69q0 54 36 86q34 30 84 30q70 0 118 -52q47 -51 47 -130q0 -129 -125 -246q-44 -40 -105 -70z" />
    <glyph glyph-name="divide" unicode="&#xf7;" horiz-adv-x="1155" 
d="M1093 451h-1032v135h1032v-135zM578 1056q48 0 83 -39q30 -33 30 -77q0 -48 -36 -80q-36 -31 -79 -31q-49 0 -85 38q-27 29 -27 74q0 52 38 86q32 29 76 29zM578 207q48 0 83 -39q30 -33 30 -77q0 -48 -36 -80q-35 -31 -79 -31q-49 0 -84 37q-28 30 -28 75q0 52 38 86
q32 29 76 29z" />
    <glyph glyph-name="lozenge" unicode="&#x25ca;" horiz-adv-x="1012" 
d="M427 -1l-390 772l401 744h129l388 -750l-404 -766h-124zM491 118l333 647l-321 633l-338 -628z" />
    <glyph glyph-name="ydieresis" unicode="&#xff;" 
d="M973 922v-31q-25 -3 -40 -11q-33 -17 -58 -81l-315 -835q-92 -243 -180 -335q-72 -75 -167 -75q-81 0 -122 47q-29 33 -29 72q0 40 28 66q24 24 59 24q51 0 108 -24q34 -13 53 -13q22 0 50.5 25.5t51.5 65.5q54 97 79 208q3 11 3 12q0 49 -89 208q-12 22 -38 79l-234 504
q-24 53 -104 65v29h422v-31q-72 -4 -99 -19q-20 -12 -20 -36q0 -32 21 -78l235 -518l199 566q8 22 8 34q0 51 -98 51v31h276zM341 1274q43 0 75 -34q27 -29 27 -68q0 -44 -34 -75q-30 -26 -71 -26q-47 0 -75 36q-23 29 -23 66q0 43 35 77q26 24 66 24zM749 1274q43 0 75 -34
q27 -30 27 -68q0 -44 -34 -75q-30 -26 -71 -26q-47 0 -75 36q-23 29 -23 66q0 43 35 77q26 24 66 24z" />
    <glyph glyph-name="Ydieresis" unicode="&#x178;" horiz-adv-x="1479" 
d="M1440 1356v-39q-54 -6 -89 -22q-78 -36 -194 -211l-303 -463v-398q2 -130 46 -154q32 -20 78 -25q36 -4 87 -5v-39h-627v39q92 4 117 12q50 13 67 40q22 32 23 155v356l-268 393q-205 295 -266 310q-25 9 -66 12v39h573v-39q-37 -2 -51 -3q-94 -4 -94 -57q0 -40 34 -92
l304 -454l293 463q28 44 28 75q0 34 -24 48q-33 19 -117 20v39h449zM569 1708q43 0 75 -34q27 -30 27 -68q0 -44 -34 -75q-30 -26 -71 -26q-47 0 -75 36q-23 29 -23 66q0 43 35 77q26 24 66 24zM977 1708q43 0 75 -34q27 -30 27 -68q0 -44 -34 -75q-30 -26 -71 -26
q-47 0 -75 36q-23 29 -23 66q0 43 35 77q26 24 66 24z" />
    <glyph glyph-name="fraction" unicode="&#x2215;" horiz-adv-x="342" 
d="M678 1384l-922 -1413h-100l928 1413h94z" />
    <glyph glyph-name="currency" unicode="&#xa4;" 
d="M-45 221l201 197q-84 121 -84 258q0 140 84 258l-201 201l102 98l197 -197q124 80 259 80q144 0 257 -80l201 197l98 -98l-196 -201q79 -119 79 -255q0 -137 -79 -261l196 -197l-98 -102l-201 200q-117 -83 -256 -83q-137 0 -260 83l-197 -200zM509 985q-134 0 -225 -108
q-73 -86 -73 -200q0 -140 103 -233q85 -77 200 -77q132 0 219 98q80 90 80 215q0 136 -102 229q-83 76 -202 76z" />
    <glyph glyph-name="guilsinglleft" unicode="&#x2039;" horiz-adv-x="682" 
d="M129 455l134 120q33 29 38 33q28 25 48 44q118 103 125 121q65 79 89 79q21 0 21 -21q0 -19 -33 -73t-78 -108q-94 -113 -154 -191l21 -27q242 -306 242 -346q0 -18 -19 -18q-11 0 -22 13q-160 156 -349 318z" />
    <glyph glyph-name="guilsinglright" unicode="&#x203a;" horiz-adv-x="682" 
d="M553 455l-64 -56q-192 -165 -348 -318q-11 -13 -22 -13q-19 0 -19 18q0 40 242 346q6 8 20 27q-67 87 -153 191q-74 88 -108 165q-3 7 -3 16q0 21 21 21q24 0 88 -79q6 -16 125 -121q19 -17 49 -44q4 -4 38 -33z" />
    <glyph glyph-name="fi" unicode="&#xf001;" horiz-adv-x="1139" 
d="M63 855v67h141q10 143 37 213q98 264 407 264q77 0 140 -18.5t90 -50.5q31 -34 31 -75q0 -39 -25 -61q-21 -18 -49 -18q-47 0 -100 75q-43 62 -86 85q-23 12 -60 12q-56 0 -106 -29t-76 -77q-43 -76 -35 -220v-12v-88h322q116 1 231 20l8 -6q-4 -138 -4 -200v-537
q2 -120 39 -142q29 -20 98 -26v-31h-450v31q78 6 108 26q31 20 33 142v541q-1 85 -28 97q-23 13 -65 15q-56 3 -114 3h-176v-675q2 -98 37 -122q32 -22 104 -27v-31h-450v31q68 2 97 19q38 21 40 143v662h-139z" />
    <glyph glyph-name="fl" unicode="&#xf002;" horiz-adv-x="1139" 
d="M66 856v66h145q7 159 33 235q44 128 140 192q76 50 161 50q81 0 170 -34q45 -18 62 -18q26 0 85 29q38 18 64 23l10 -4v-1229q2 -92 31 -110q30 -20 100 -25v-31h-440v31q65 5 95 26q41 25 42 115v684h-385v-694q1 -80 38 -103q32 -21 107 -28v-31h-458v31q73 5 100 22
q39 21 41 162v641h-141zM764 922v289q-13 -15 -33 -15q-34 0 -54 13q-27 17 -58 62q-30 45 -55 61q-18 11 -51 11q-68 0 -101.5 -77.5t-33.5 -236.5v-107h386z" />
    <glyph glyph-name="daggerdbl" unicode="&#x2021;" 
d="M535 934q44 2 57 4q49 5 132 41q64 27 103 27q32 0 57 -27q21 -23 21 -65q0 -43 -26 -66q-22 -21 -50 -21q-43 0 -108 25q-102 39 -186 45q-1 -36 -1 -55q0 -152 38 -238q13 -29 45 -71q-48 -58 -62 -113q-22 -100 -22 -246q83 7 186 45q65 25 106 25q33 0 57 -25
q21 -23 21 -65q0 -44 -27 -67q-24 -22 -52 -22q-38 0 -102 27q-83 36 -132 41q-13 2 -57 4q0 -69 3 -90q7 -75 46 -172q25 -62 25 -96q0 -38 -34 -68q-27 -24 -62 -24q-41 0 -70 32q-25 28 -25 60q0 34 25 96q39 97 45 172q3 21 4 90q-44 -1 -58 -4q-48 -5 -132 -41
q-64 -27 -102 -27q-32 0 -57 26q-22 23 -22 66t25 66q23 21 52 21q42 0 107 -25q103 -38 187 -45q0 111 -10 186q-15 94 -39 133q-11 16 -33 40q85 113 84 364q-88 -7 -187 -44q-62 -25 -94 -25q-90 0 -90 88q0 45 27 69q24 21 52 21q38 0 102 -27q83 -36 133 -41
q13 -2 57 -4q-1 70 -4 91q-6 74 -45 171q-25 63 -25 98q0 37 33 66q27 25 62 25q41 0 70 -32q26 -28 26 -60q0 -34 -25 -97q-39 -96 -46 -171q-3 -21 -3 -91z" />
    <glyph glyph-name="periodcentered" unicode="&#x2219;" horiz-adv-x="512" 
d="M257 635q47 0 83 -39q30 -33 30 -77q0 -48 -36 -80q-36 -31 -79 -31q-49 0 -85 38q-27 29 -27 74q0 51 38 86q32 29 76 29z" />
    <glyph glyph-name="quotesinglbase" unicode="&#x201a;" horiz-adv-x="682" 
d="M217 -289l-18 39q83 58 125.5 113t42.5 105q0 28 -28 28q-4 0 -16 -3q-18 -5 -39 -5q-65 0 -99 36q-23 25 -23 69q0 55 36 86q34 30 84 30q70 0 118 -52q47 -51 47 -130q0 -129 -125 -245q-44 -41 -105 -71z" />
    <glyph glyph-name="quotedblbase" unicode="&#x201e;" horiz-adv-x="909" 
d="M147 -289l-18 39q168 116 168 218q0 28 -28 28q-4 0 -16 -3q-18 -5 -39 -5q-65 0 -99 36q-23 25 -23 69q0 55 36 86q33 30 84 30q70 0 118 -52q47 -51 47 -130q0 -129 -125 -245q-44 -41 -105 -71zM622 -289l-18 39q168 116 168 218q0 28 -28 28q-4 0 -16 -3
q-18 -5 -39 -5q-65 0 -99 36q-23 25 -23 69q0 55 36 86q33 30 84 30q70 0 118 -52q47 -51 47 -130q0 -129 -125 -245q-44 -41 -105 -71z" />
    <glyph glyph-name="perthousand" unicode="&#x2030;" horiz-adv-x="2048" 
d="M1161 1446l-881 -1483h-96l806 1349q-48 -57 -84 -78q-68 -40 -162 -40q-70 0 -156 29q8 -49 8 -90q0 -148 -80 -283q-107 -182 -260 -182q-100 0 -170 77q-72 79 -72 204q0 197 148 333q112 103 248 103q27 0 44 -6q30 -12 77 -51q56 -46 102 -64q39 -16 96 -16
q77 0 119 18q61 26 141 102q36 34 82 78h90zM405 1329q-60 -29 -86 -51t-56 -68q-103 -161 -103 -344q0 -78 44 -116q30 -27 73 -27q86 0 159 90q50 63 80.5 159t30.5 194q0 48 -13 69q-7 10 -39 25q-41 19 -90 69zM1098 676q87 0 142 -59q54 -57 54 -181q0 -157 -77 -292
q-55 -94 -140 -149q-55 -34 -118 -34q-102 0 -178 82q-71 76 -71 201q0 190 151 328q113 104 237 104zM1118 619q-58 0 -101 -47q-58 -62 -101 -161q-59 -136 -59 -256q0 -70 46 -113q26 -26 68 -26q87 0 162 92q53 65 83.5 154t30.5 178q0 102 -54 151q-31 28 -75 28z
M1839 676q87 0 142 -59q54 -57 54 -181q0 -156 -77 -292q-55 -94 -140 -149q-54 -34 -117 -34q-102 0 -178 82q-71 76 -71 202q0 189 150 327q113 104 237 104zM1858 619q-65 0 -128 -80q-69 -86 -110 -239q-21 -81 -21 -140q0 -74 45 -118q27 -26 69 -26q86 0 161 92
q53 65 83.5 154t30.5 178q0 102 -54 151q-31 28 -76 28z" />
    <glyph glyph-name="Acircumflex" unicode="&#xc2;" horiz-adv-x="1479" 
d="M1446 39v-39h-522v39q86 1 115 18q28 16 28 50q0 48 -39 139l-84 196h-536l-94 -239q-16 -41 -16 -80q0 -83 139 -84v-39h-406v39q39 2 66 15q25 13 34 25q30 37 69.5 112.5t84.5 183.5l426 1005h41l510 -1163q70 -154 122 -167q22 -8 62 -11zM443 526h473l-238 564z
M1048 1473h-70l-250 211l-247 -211h-70l254 342h127z" />
    <glyph glyph-name="Ecircumflex" unicode="&#xca;" horiz-adv-x="1251" 
d="M1223 346l-92 -346h-1106v39q94 7 131 30q45 26 47 154v910q-2 127 -46 153q-36 23 -132 31v39h1088l6 -293h-51q-21 107 -57 153q-21 25 -42 33q-55 28 -213 29h-276q-45 0 -55 -12q-13 -14 -13 -58v-454h315q149 2 180 50q28 39 46 144h47v-475h-47q-18 107 -46 148
q-31 47 -180 49h-315v-506q1 -54 15 -64q29 -22 201 -23h54q229 2 313 53q76 43 121 119q23 39 50 97h57zM946 1473h-70l-250 211l-247 -211h-70l254 342h127z" />
    <glyph glyph-name="Aacute" unicode="&#xc1;" horiz-adv-x="1479" 
d="M1446 39v-39h-522v39q86 1 115 18q28 16 28 50q0 48 -39 139l-84 196h-536l-94 -239q-16 -41 -16 -80q0 -83 139 -84v-39h-406v39q39 2 66 15q25 13 34 25q30 37 69.5 112.5t84.5 183.5l426 1005h41l510 -1163q70 -154 122 -167q22 -8 62 -11zM443 526h473l-238 564z
M661 1473h-82l301 303q47 47 87 47q71 0 71 -65q0 -47 -62 -86z" />
    <glyph glyph-name="Edieresis" unicode="&#xcb;" horiz-adv-x="1251" 
d="M1223 346l-92 -346h-1106v39q94 7 131 30q45 26 47 154v910q-2 127 -46 153q-36 23 -132 31v39h1088l6 -293h-51q-21 107 -57 153q-21 25 -42 33q-55 28 -213 29h-276q-45 0 -55 -12q-13 -14 -13 -58v-454h315q149 2 180 50q28 39 46 144h47v-475h-47q-18 107 -46 148
q-31 47 -180 49h-315v-506q1 -54 15 -64q29 -22 201 -23h54q229 2 313 53q76 43 121 119q23 39 50 97h57zM424 1708q43 0 75 -34q27 -29 27 -68q0 -44 -34 -75q-30 -26 -71 -26q-47 0 -75 36q-23 29 -23 66q0 43 35 77q26 24 66 24zM832 1708q43 0 75 -34q27 -30 27 -68
q0 -44 -34 -75q-30 -26 -71 -26q-47 0 -75 36q-23 29 -23 66q0 43 35 77q26 24 66 24z" />
    <glyph glyph-name="Egrave" unicode="&#xc8;" horiz-adv-x="1251" 
d="M1223 346l-92 -346h-1106v39q94 7 131 30q45 26 47 154v910q-2 127 -46 153q-36 23 -132 31v39h1088l6 -293h-51q-21 107 -57 153q-21 25 -42 33q-55 28 -213 29h-276q-45 0 -55 -12q-13 -14 -13 -58v-454h315q149 2 180 50q28 39 46 144h47v-475h-47q-18 107 -46 148
q-31 47 -180 49h-315v-506q1 -54 15 -64q29 -22 201 -23h54q229 2 313 53q76 43 121 119q23 39 50 97h57zM782 1473h-82l-316 199q-59 37 -59 87q0 64 69 64q40 0 87 -47z" />
    <glyph glyph-name="Iacute" unicode="&#xcd;" horiz-adv-x="682" 
d="M236 223v910q-2 129 -43 152q-30 19 -74 25q-34 4 -82 7v39h609v-39q-86 -4 -110 -12q-49 -12 -66 -40q-24 -40 -25 -132v-910q2 -128 49 -155q30 -19 75 -24q32 -3 77 -5v-39h-609v39q87 3 111 11q48 13 65 40q22 34 23 133zM273 1473h-82l301 303q47 47 87 47
q71 0 71 -65q0 -47 -62 -86z" />
    <glyph glyph-name="Icircumflex" unicode="&#xce;" horiz-adv-x="682" 
d="M235 223v910q-2 129 -43 152q-30 19 -74 25q-34 4 -82 7v39h609v-39q-86 -4 -110 -12q-49 -12 -66 -40q-24 -40 -25 -132v-910q2 -128 49 -155q30 -19 75 -24q32 -3 77 -5v-39h-609v39q87 3 111 11q48 13 65 40q22 34 23 133zM660 1473h-70l-250 211l-247 -211h-70
l254 342h127z" />
    <glyph glyph-name="Idieresis" unicode="&#xcf;" horiz-adv-x="682" 
d="M236 223v910q-2 129 -43 152q-30 19 -74 25q-34 4 -82 7v39h609v-39q-86 -4 -110 -12q-49 -12 -66 -40q-24 -40 -25 -132v-910q2 -128 49 -155q30 -19 75 -24q32 -3 77 -5v-39h-609v39q87 3 111 11q48 13 65 40q22 34 23 133zM138 1708q43 0 75 -34q27 -29 27 -68
q0 -44 -34 -75q-30 -26 -71 -26q-47 0 -75 36q-23 29 -23 66q0 43 35 77q26 24 66 24zM546 1708q43 0 75 -34q27 -30 27 -68q0 -44 -34 -75q-30 -26 -71 -26q-47 0 -75 36q-23 29 -23 66q0 43 35 77q26 24 66 24z" />
    <glyph glyph-name="Igrave" unicode="&#xcc;" horiz-adv-x="682" 
d="M236 223v910q-2 129 -43 152q-30 19 -74 25q-34 4 -82 7v39h609v-39q-86 -4 -110 -12q-49 -12 -66 -40q-24 -40 -25 -132v-910q2 -128 49 -155q30 -19 75 -24q32 -3 77 -5v-39h-609v39q87 3 111 11q48 13 65 40q22 34 23 133zM497 1473h-82l-316 199q-59 37 -59 87
q0 64 69 64q40 0 87 -47z" />
    <glyph glyph-name="Oacute" unicode="&#xd3;" horiz-adv-x="1479" 
d="M750 1385q139 0 265.5 -56t220.5 -158q173 -189 173 -493q0 -167 -57 -308t-163 -234q-186 -165 -450 -165q-144 0 -273 54.5t-221 153.5q-82 89 -128.5 223.5t-46.5 282.5q0 163 56.5 300.5t162.5 231.5q188 168 461 168zM733 1311q-165 0 -286 -133
q-65 -71 -104.5 -208t-39.5 -290q0 -244 93 -431q47 -95 151 -154q88 -50 194 -50q159 0 267 109q71 71 101 148q67 174 67 389q0 233 -94 414q-50 96 -152 155q-88 51 -197 51zM672 1473h-82l301 303q47 47 87 47q71 0 71 -65q0 -47 -62 -86z" />
    <glyph glyph-name="Ocircumflex" unicode="&#xd4;" horiz-adv-x="1479" 
d="M750 1385q139 0 265.5 -56t220.5 -158q173 -189 173 -493q0 -167 -57 -308t-163 -234q-186 -165 -450 -165q-144 0 -273 54.5t-221 153.5q-82 89 -128.5 223.5t-46.5 282.5q0 163 56.5 300.5t162.5 231.5q188 168 461 168zM733 1311q-165 0 -286 -133
q-65 -71 -104.5 -208t-39.5 -290q0 -244 93 -431q47 -95 151 -154q88 -50 194 -50q159 0 267 109q71 71 101 148q67 174 67 389q0 233 -94 414q-50 96 -152 155q-88 51 -197 51zM1059 1473h-70l-250 211l-247 -211h-70l254 342h127z" />
    <glyph glyph-name="apple" unicode="&#xf000;" horiz-adv-x="1618" 
d="M1167 1430v-16q0 -164 -151 -271q-83 -59 -159 -70q-17 -2 -60 -2q-1 143 100 241q109 103 270 118zM1462 944q-68 -52 -102 -97q-64 -83 -64 -189q0 -131 87 -228q45 -50 118 -82q-93 -193 -219 -312q-43 -41 -92 -66t-86 -25q-62 0 -141 35q-33 14 -43 17q-28 7 -102 7
q-50 0 -106 -24q-85 -35 -133 -35q-110 0 -221 117q-101 106 -170 259q-73 161 -73 324q0 208 146 335q59 51 132 81.5t137 30.5q82 0 194 -40q71 -26 105 -26q28 0 82 21q72 27 102 35q38 10 95 10q223 0 354 -148z" />
    <glyph glyph-name="Ograve" unicode="&#xd2;" horiz-adv-x="1479" 
d="M750 1385q139 0 265.5 -56t220.5 -158q173 -189 173 -493q0 -167 -57 -308t-163 -234q-186 -165 -450 -165q-144 0 -273 54.5t-221 153.5q-82 89 -128.5 223.5t-46.5 282.5q0 163 56.5 300.5t162.5 231.5q188 168 461 168zM733 1311q-165 0 -286 -133
q-65 -71 -104.5 -208t-39.5 -290q0 -244 93 -431q47 -95 151 -154q88 -50 194 -50q159 0 267 109q71 71 101 148q67 174 67 389q0 233 -94 414q-50 96 -152 155q-88 51 -197 51zM896 1473h-82l-316 199q-59 37 -59 87q0 64 69 64q40 0 87 -47z" />
    <glyph glyph-name="Uacute" unicode="&#xda;" horiz-adv-x="1479" 
d="M1252 1055v-535q0 -161 -29 -251q-97 -298 -496 -298q-165 0 -275.5 52t-171.5 157q-67 117 -67 314v639q-2 129 -42 152q-37 24 -142 32v39h579v-39q-106 -10 -145 -35q-39 -23 -41 -149v-656q0 -179 52 -270q83 -146 301 -146q80 0 155 24t124 65q74 62 95 172
q13 66 13 180v553q-3 194 -61 228q-41 27 -132 34v39h476v-39q-100 -12 -139 -39q-51 -31 -54 -223zM722 1473h-82l301 303q47 47 87 47q71 0 71 -65q0 -47 -62 -86z" />
    <glyph glyph-name="Ucircumflex" unicode="&#xdb;" horiz-adv-x="1479" 
d="M1252 1055v-535q0 -161 -29 -251q-97 -298 -496 -298q-165 0 -275.5 52t-171.5 157q-67 117 -67 314v639q-2 129 -42 152q-37 24 -142 32v39h579v-39q-106 -10 -145 -35q-39 -23 -41 -149v-656q0 -179 52 -270q83 -146 301 -146q80 0 155 24t124 65q74 62 95 172
q13 66 13 180v553q-3 194 -61 228q-41 27 -132 34v39h476v-39q-100 -12 -139 -39q-51 -31 -54 -223zM1099 1473h-70l-250 211l-247 -211h-70l254 342h127z" />
    <glyph glyph-name="Ugrave" unicode="&#xd9;" horiz-adv-x="1479" 
d="M1252 1055v-535q0 -161 -29 -251q-97 -298 -496 -298q-165 0 -275.5 52t-171.5 157q-67 117 -67 314v639q-2 129 -42 152q-37 24 -142 32v39h579v-39q-106 -10 -145 -35q-39 -23 -41 -149v-656q0 -179 52 -270q83 -146 301 -146q80 0 155 24t124 65q74 62 95 172
q13 66 13 180v553q-3 194 -61 228q-41 27 -132 34v39h476v-39q-100 -12 -139 -39q-51 -31 -54 -223zM932 1473h-82l-316 199q-59 37 -59 87q0 64 69 64q40 0 87 -47z" />
    <glyph glyph-name="dotlessi" unicode="&#x131;" horiz-adv-x="569" 
d="M359 942l8 -6v-727q2 -130 37 -151q32 -21 115 -27v-31h-486v31q88 5 121 24q39 21 41 154v475q0 87 -26 110q-14 13 -41 13q-29 0 -71 -6l-16 -2v31z" />
    <glyph glyph-name="circumflex" unicode="&#x2c6;" horiz-adv-x="682" 
d="M660 1038h-70l-250 211l-247 -211h-70l254 342h127z" />
    <glyph glyph-name="tilde" unicode="&#x2dc;" horiz-adv-x="682" 
d="M618 1307h60q-29 -109 -74 -160q-51 -57 -141 -57q-48 0 -87 15q-29 10 -79 34l-47 23q-47 22 -85 22q-70 0 -104 -94h-59q22 93 66 142q60 65 140 65q70 0 144 -37l49 -25q63 -31 110 -31q33 0 57 22q23 21 50 81z" />
    <glyph glyph-name="macron" unicode="&#x2c9;" horiz-adv-x="682" 
d="M23 1231h637v-111h-637v111z" />
    <glyph glyph-name="breve" unicode="&#x2d8;" horiz-adv-x="682" 
d="M569 1360h59q-37 -321 -290 -321q-150 0 -229 111q-42 59 -50 128q-5 35 -6 82h59q18 -85 57 -130q59 -68 173 -68q96 0 144 49q42 41 83 149z" />
    <glyph glyph-name="dotaccent" unicode="&#x2d9;" horiz-adv-x="682" 
d="M343 1274q43 0 75 -34q27 -29 27 -68q0 -44 -34 -75q-30 -26 -71 -26q-47 0 -75 36q-23 29 -23 66q0 43 35 77q26 24 66 24z" />
    <glyph glyph-name="ring" unicode="&#x2da;" horiz-adv-x="682" 
d="M343 1456q87 0 149 -68q53 -58 53 -137q0 -89 -67 -149q-59 -53 -139 -53q-74 0 -130 47q-72 60 -72 157q0 89 68 151q57 52 138 52zM338 1386q-57 0 -95 -43q-36 -41 -36 -90q0 -59 46 -102q34 -32 85 -32q63 0 103 44q34 38 34 90q0 58 -45 98q-38 35 -92 35z" />
    <glyph glyph-name="cedilla" unicode="&#xb8;" horiz-adv-x="682" 
d="M200 -203l84 203h72l-51 -133q26 6 53 6q102 0 144 -50q32 -38 32 -90q0 -69 -52 -116q-65 -57 -204 -57q-89 0 -172 33l29 63q74 -25 134 -25q61 0 90 32q21 23 21 59q0 35 -20 53q-21 20 -88 20q-34 0 -57 -8z" />
    <glyph glyph-name="hungarumlaut" unicode="&#x2dd;" horiz-adv-x="682" 
d="M395 1038h-82l302 304q32 33 55 42q10 5 31 5q71 0 71 -65q0 -48 -61 -87zM76 1038h-82l301 304q33 33 55 42q11 5 32 5q71 0 71 -65q0 -48 -62 -87z" />
    <glyph glyph-name="ogonek" unicode="&#x2db;" horiz-adv-x="682" 
d="M469 -150l41 -32q-109 -156 -230 -156q-67 0 -109 47q-40 45 -40 108q0 96 111 183h94q-90 -73 -90 -142q0 -39 26 -62q20 -19 52 -19q58 0 145 73z" />
    <glyph glyph-name="caron" unicode="&#x2c7;" horiz-adv-x="682" 
d="M660 1380l-256 -342h-127l-254 342h70l247 -211l250 211h70z" />
    <glyph glyph-name="Lslash" unicode="&#x141;" horiz-adv-x="1251" 
d="M203 666v467q-2 127 -46 153q-36 23 -132 31v39h577v-39q-104 -7 -143 -31q-45 -26 -47 -153v-347l318 183v-101l-318 -182v-522q0 -47 19 -62q25 -21 158 -22h137q259 3 354 117q42 46 94 159h52l-99 -356h-1102v39q94 7 131 30q45 26 47 154v342l-178 -102v100z" />
    <glyph glyph-name="lslash" unicode="&#x142;" horiz-adv-x="569" 
d="M201 740v415q0 85 -24 107q-20 18 -62 18q-27 0 -65 -3l-11 -1v33q186 46 326 90l8 -4v-537l158 109v-90l-158 -109v-596q2 -96 36 -116q32 -20 118 -25v-31h-484v31q84 7 119 30q38 24 39 117v472l-160 -109v90z" />
    <glyph glyph-name="Scaron" unicode="&#x160;" horiz-adv-x="1139" 
d="M915 1384l45 -436h-51q-29 108 -62 161q-64 102 -160 153q-72 38 -152 38q-111 0 -169 -66q-45 -51 -45 -124q0 -55 30 -108q23 -40 98.5 -99t173.5 -112q275 -149 344 -287q39 -78 39 -159q0 -158 -119 -266q-118 -108 -298 -108q-124 0 -243 47q-60 23 -96 23
q-26 0 -44 -25q-12 -17 -14 -43h-45l-61 435h47q41 -100 74.5 -154.5t86.5 -105.5q105 -103 254 -103q127 0 195 77q56 65 56 153q0 78 -28 120q-80 120 -306 240q-221 117 -281 234q-39 75 -39 163q0 163 109 259q106 93 243 93q106 0 219 -45q58 -24 92 -24q50 0 64 69h43
zM889 1815l-256 -342h-127l-254 342h70l247 -211l250 211h70z" />
    <glyph glyph-name="scaron" unicode="&#x161;" horiz-adv-x="797" 
d="M646 643h-31q-26 102 -50 145q-62 107 -176 107q-82 0 -124 -49q-33 -38 -33 -90q0 -88 88 -140l221 -131q101 -60 144 -128q28 -44 28 -115q0 -112 -85 -185q-89 -77 -201 -77q-65 0 -153 21q-63 15 -94 15q-29 0 -46 -24h-27v319h33q34 -148 88 -214q61 -72 172 -72
q92 0 136 51q34 38 34 96q0 93 -107 153l-118 68q-167 95 -210 176q-30 57 -30 119q0 110 79 183q77 71 201 71q73 0 143 -28q34 -13 54 -13q16 0 33 23h22zM717 1380l-256 -342h-127l-254 342h70l247 -211l250 211h70z" />
    <glyph glyph-name="Zcaron" unicode="&#x17d;" horiz-adv-x="1251" 
d="M1175 360h47l-49 -360h-1155v31l895 1247h-453q-211 -3 -275 -88q-35 -43 -51 -103q-9 -34 -18 -81h-53l41 350h1077v-31l-884 -1247h526q188 1 255 79q43 47 69 116q13 36 28 87zM945 1815l-256 -342h-127l-254 342h70l247 -211l250 211h70z" />
    <glyph glyph-name="zcaron" unicode="&#x17e;" horiz-adv-x="909" 
d="M856 276l-29 -276h-772v30l545 831h-283q-107 -1 -135 -46q-25 -39 -37 -135h-37l6 242h711v-30l-551 -831h283q166 2 202 54q27 32 41 85q9 35 19 84zM773 1380l-256 -342h-127l-254 342h70l247 -211l250 211h70z" />
    <glyph glyph-name="brokenbar" unicode="&#xa6;" horiz-adv-x="410" 
d="M137 -29v566h135v-566h-135zM137 819v565h135v-565h-135z" />
    <glyph glyph-name="Eth" unicode="&#xd0;" horiz-adv-x="1479" 
d="M213 645h-170v90h170v398q-2 130 -40 152q-35 22 -140 32v39h553q212 0 375.5 -54.5t267.5 -159.5q174 -175 174 -457q0 -150 -54.5 -281t-154.5 -222q-95 -85 -248.5 -133.5t-330.5 -48.5h-582v39q99 7 137 32q41 24 43 152v422zM721 735v-90h-299v-485q0 -48 19 -64
q23 -20 86 -20q185 0 294 36q359 119 359 558q0 339 -243 509q-146 102 -415 102q-66 0 -86 -22q-14 -15 -14 -58v-466h299z" />
    <glyph glyph-name="eth" unicode="&#xf0;" 
d="M553 1178l-252 -133l-68 61l248 131q-130 91 -272 115l86 47q111 -11 185 -35q59 -22 126 -61l194 102l68 -61l-186 -98q78 -76 115 -124.5t71 -117.5q96 -197 96 -420q0 -207 -94 -381q-122 -223 -365 -223q-197 0 -327 145q-119 132 -119 332q0 111 41 210.5t113 165.5
q119 109 280 109q92 0 164 -46q34 -21 95 -76q-27 125 -82 217q-38 59 -117 141zM481 885q-91 0 -161 -74q-77 -81 -77 -244q0 -228 90 -397q71 -133 205 -133q86 0 146 61q96 96 96 316q0 183 -75 328q-38 72 -112 115q-49 28 -112 28z" />
    <glyph glyph-name="Yacute" unicode="&#xdd;" horiz-adv-x="1479" 
d="M1440 1356v-39q-54 -6 -89 -22q-78 -36 -194 -211l-303 -463v-398q2 -130 46 -154q32 -20 78 -25q36 -4 87 -5v-39h-627v39q92 4 117 12q50 13 67 40q22 32 23 155v356l-268 393q-205 295 -266 310q-25 9 -66 12v39h573v-39q-37 -2 -51 -3q-94 -4 -94 -57q0 -40 34 -92
l304 -454l293 463q28 44 28 75q0 34 -24 48q-33 19 -117 20v39h449zM736 1473h-82l301 303q47 47 87 47q71 0 71 -65q0 -47 -62 -86z" />
    <glyph glyph-name="yacute" unicode="&#xfd;" 
d="M973 922v-31q-25 -3 -40 -11q-33 -17 -58 -81l-315 -835q-92 -243 -180 -335q-72 -75 -167 -75q-81 0 -122 47q-29 33 -29 72q0 40 28 66q24 24 59 24q51 0 108 -24q34 -13 53 -13q22 0 50.5 25.5t51.5 65.5q54 97 79 208q3 11 3 12q0 49 -89 208q-12 22 -38 79l-234 504
q-24 53 -104 65v29h422v-31q-72 -4 -99 -19q-20 -12 -20 -36q0 -32 21 -78l235 -518l199 566q8 22 8 34q0 51 -98 51v31h276zM444 1038h-82l301 304q33 33 55 42q11 5 32 5q71 0 71 -65q0 -48 -62 -87z" />
    <glyph glyph-name="Thorn" unicode="&#xde;" horiz-adv-x="1139" 
d="M600 1356v-39q-87 -9 -117 -22q-30 -12 -43.5 -31t-19.5 -57q-6 -41 -6 -117h163q201 0 359 -80q84 -43 132 -128q42 -73 42 -163q0 -141 -96 -247q-83 -91 -216 -124q-98 -24 -243 -24q-70 0 -141 6v-107q2 -129 46 -154q31 -20 73 -25q31 -3 74 -5v-39h-574v39
q97 9 133 34q17 13 23 27q16 24 16 146v887q-2 127 -40 150q-35 23 -132 34v39h567zM414 412q61 -6 113 -6q146 0 228 47q132 75 132 253q0 179 -128 252q-96 54 -280 54q-41 0 -53 -14t-12 -54v-532z" />
    <glyph glyph-name="thorn" unicode="&#xfe;" 
d="M18 1276v33q176 48 297 90l10 -6v-611q132 160 294 160q142 0 236 -109q50 -58 78.5 -145.5t28.5 -181.5q0 -166 -81 -310q-121 -216 -350 -216q-81 0 -140 35q-26 15 -66 53v-322q2 -109 40 -130t140 -23v-37h-495v37q79 7 111 29q30 20 32 110v1442q0 68 -19 86
q-20 18 -82 18q-18 0 -34 -2zM325 684v-504q0 -34 51 -76q70 -58 162 -58q91 0 161 77q39 43 63 127t24 175q0 154 -61 274q-28 55 -87 91q-47 29 -105 29q-103 0 -173 -72q-35 -37 -35 -63z" />
    <glyph glyph-name="minus" unicode="&#x2212;" horiz-adv-x="1155" 
d="M1093 451h-1032v135h1032v-135z" />
    <glyph glyph-name="multiply" unicode="&#xd7;" horiz-adv-x="1155" 
d="M479 518l-401 402l98 98l402 -404l403 404l98 -98l-403 -402l403 -403l-98 -99l-403 404l-402 -404l-98 99z" />
    <glyph glyph-name="onesuperior" unicode="&#xb9;" horiz-adv-x="614" 
d="M508 602v-49h-391v49q63 4 89 18q20 12 20 48v526q0 58 -17 58q-13 0 -88 -27v47l242 113l29 -6v-703q0 -40 22 -53q27 -17 94 -21z" />
    <glyph glyph-name="twosuperior" unicode="&#xb2;" horiz-adv-x="614" 
d="M606 727l-76 -174h-518v47l201 219q105 115 154 226q12 25 12 56q0 66 -52 118q-38 37 -98 37q-111 0 -176 -144l-51 29q30 88 55 126q80 118 241 118q147 0 217 -81q52 -60 52 -137t-45 -155q-34 -60 -127 -152l-176 -174h248q55 0 77 22q10 9 27 33z" />
    <glyph glyph-name="threesuperior" unicode="&#xb3;" horiz-adv-x="614" 
d="M192 942v60q113 38 159 83q36 33 36 84q0 46 -29 73q-30 28 -86 28q-75 0 -128 -55q-19 -19 -49 -62l-51 37q48 93 96 132q78 63 182 63q118 0 180 -70q41 -46 41 -100q0 -80 -123 -168q177 -72 177 -230q0 -107 -90 -184q-51 -44 -134.5 -70t-171.5 -26q-108 0 -147 43
q-23 25 -23 59q0 36 25 58q20 18 46 18q32 0 84 -38q58 -42 106 -42q66 0 106 43q33 36 33 96q0 78 -56 126q-58 49 -127 49h-8z" />
    <glyph glyph-name="onehalf" unicode="&#xbd;" horiz-adv-x="1536" 
d="M1228 1384l-921 -1413h-101l928 1413h94zM454 602v-49h-391v49q63 4 89 18q20 12 20 48v526q0 58 -17 58q-13 0 -88 -27v47l242 113l29 -6v-703q0 -40 22 -53q27 -17 94 -21zM1527 174l-76 -174h-518v47l201 219q105 115 154 226q12 26 12 56q0 67 -52 118q-39 37 -98 37
q-111 0 -176 -144l-51 29q41 122 95 173q74 71 201 71q147 0 217 -81q52 -60 52 -137q0 -78 -45 -155q-34 -60 -127 -152l-176 -174h248q55 0 77 22q10 8 27 33z" />
    <glyph glyph-name="onequarter" unicode="&#xbc;" horiz-adv-x="1536" 
d="M1471 301v-117h-113v-184h-143v184h-369v101l416 544h96v-528h113zM1215 301v366l-277 -366h277zM1305 1384l-922 -1413h-100l928 1413h94zM467 602v-49h-391v49q63 4 89 18q20 12 20 48v526q0 58 -17 58q-13 0 -88 -27v47l242 113l29 -6v-703q0 -40 22 -53
q27 -17 94 -21z" />
    <glyph glyph-name="threequarters" unicode="&#xbe;" horiz-adv-x="1536" 
d="M1471 301v-117h-113v-184h-143v184h-369v101l416 544h96v-528h113zM1215 301v366l-277 -366h277zM1305 1384l-922 -1413h-100l928 1413h94zM192 942v60q113 38 159 83q36 33 36 84q0 46 -30 73q-29 28 -85 28q-75 0 -128 -55q-20 -19 -49 -62l-52 37q49 93 97 132
q78 63 182 63q118 0 180 -70q41 -46 41 -99q0 -81 -123 -169q177 -72 177 -230q0 -107 -90 -184q-51 -44 -134.5 -70t-171.5 -26q-108 0 -147 43q-23 25 -23 59q0 36 25 58q19 18 46 18q32 0 84 -38q58 -42 106 -42q66 0 106 43q33 36 33 96q0 78 -56 126q-58 49 -127 49h-8
z" />
    <glyph glyph-name="franc" unicode="&#x20a3;" horiz-adv-x="1284" 
d="M1115 1356v-296h-54q-11 120 -67 169q-40 34 -106 42q-22 3 -89 3h-262q-71 0 -95 -19q-22 -20 -22 -78v-429h230q122 0 177 43q50 39 60 103q3 17 6 50h47v-180q21 26 50 60q97 116 190 116q48 0 80 -33q29 -31 29 -79q0 -38 -24 -65q-23 -25 -58 -25q-38 0 -70 35
q-29 32 -64 32q-34 0 -78 -47q-14 -15 -55 -68v-495q0 -55 6 -82q21 -75 125 -82v-31h-1046v41q110 8 147 43q28 26 33 84q2 23 2 54v912q0 60 -7.5 90.5t-27.5 48.5q-37 34 -147 42v41h1090zM420 670v-448q1 -90 19 -122q23 -39 69 -51q20 -6 70 -6h26q68 0 98 17
q50 29 57 96q3 27 3 66v335q-1 59 -15 82q-17 27 -72 31h-255z" />
    <glyph glyph-name="Gbreve" unicode="&#x11e;" horiz-adv-x="1479" 
d="M968 1794h59q-37 -322 -290 -322q-150 0 -229 111q-42 59 -50 128q-5 36 -6 83h59q18 -86 57 -130q59 -69 173 -69q96 0 144 49q42 42 83 150zM1452 725v-37q-74 -6 -103 -25q-39 -23 -40 -133v-415q-47 -42 -169 -82q-185 -62 -345 -62q-231 0 -419 108
q-114 66 -196 179q-114 155 -114 407q0 164 59 306.5t167 238.5q196 174 477 174q140 0 278 -47q59 -20 90 -20q40 0 72 31q13 12 20 36h45l17 -432h-48q-38 94 -68.5 144t-76.5 95q-118 112 -294 112q-218 0 -356 -155q-68 -76 -108 -206.5t-40 -273.5q0 -307 164 -472
q143 -143 375 -143q121 0 217 49q54 27 54 72v332q-2 133 -42 154q-34 20 -137 28v37h521z" />
    <glyph glyph-name="gbreve" unicode="&#x11f;" 
d="M740 1360h59q-37 -321 -290 -321q-150 0 -229 111q-42 59 -50 128q-5 35 -6 82h59q18 -85 57 -130q59 -68 173 -68q96 0 144 49q42 41 83 149zM962 794h-170q39 -88 39 -172q0 -149 -98 -231q-102 -86 -222 -86q-3 0 -116 10q-41 -12 -77 -51q-46 -48 -46 -78
q0 -48 160 -55l264 -12q136 -7 198 -82q50 -61 50 -137q0 -114 -113 -206q-80 -65 -192.5 -102.5t-227.5 -37.5q-139 0 -253 60q-47 24 -74 61.5t-27 77.5q0 70 84 155q34 34 116 94q-63 30 -87 55q-21 21 -21 53q0 45 54 104q11 11 75 70q27 25 53 50q-88 43 -126 88
q-64 76 -64 187q0 148 107 243q102 91 234 91q82 0 164 -31l46 -17q55 -21 112 -21h158v-80zM300 -4q-54 -64 -72 -94q-28 -45 -28 -82q0 -49 42 -85q32 -27 105 -45.5t151 -18.5q186 0 296 63q93 52 93 135q0 38 -24 61q-42 40 -229 39q-77 0 -177 8t-157 19zM311 691v-6
q0 -184 89 -278q48 -51 121 -51q68 0 105 43q47 53 47 142q0 133 -61 247q-52 97 -149 97q-67 0 -110 -48q-42 -47 -42 -146z" />
    <glyph glyph-name="Idot" unicode="&#x130;" horiz-adv-x="682" 
d="M343 1708q43 0 75 -34q27 -29 27 -68q0 -44 -34 -75q-30 -26 -71 -26q-47 0 -75 36q-23 29 -23 66q0 43 35 77q26 24 66 24zM236 223v910q-2 129 -43 152q-30 19 -74 25q-34 4 -82 7v39h609v-39q-86 -4 -110 -12q-49 -12 -66 -40q-24 -40 -25 -132v-910q2 -128 49 -155
q30 -19 75 -24q32 -3 77 -5v-39h-609v39q87 3 111 11q48 13 65 40q22 34 23 133z" />
    <glyph glyph-name="Scedilla" unicode="&#x15e;" horiz-adv-x="1139" 
d="M574 -29l-40 -104q27 6 54 6q100 0 143 -50q32 -38 32 -90q0 -69 -52 -116q-65 -57 -204 -57q-91 0 -172 33l29 63q74 -25 134 -25q61 0 90 32q21 23 21 59q0 35 -20 53q-21 20 -88 20q-34 0 -58 -8l-14 10l75 180q-81 11 -159 41q-59 23 -95 23q-26 0 -44 -25
q-12 -17 -14 -43h-45l-61 435h47q41 -100 74.5 -154.5t86.5 -105.5q105 -103 254 -103q127 0 195 77q56 65 56 153q0 78 -28 120q-80 120 -306 240q-221 117 -281 234q-39 75 -39 163q0 163 109 259q106 93 243 93q106 0 219 -45q58 -24 92 -24q50 0 64 69h43l45 -436h-51
q-29 108 -62 161q-64 102 -160 153q-72 38 -152 38q-111 0 -169 -66q-45 -51 -45 -124q0 -55 30 -108q23 -40 99 -99t173 -112q275 -149 344 -287q39 -78 39 -159q0 -135 -92 -239q-121 -136 -340 -135z" />
    <glyph glyph-name="scedilla" unicode="&#x15f;" horiz-adv-x="797" 
d="M405 -20l-43 -113q27 6 52 6q103 0 145 -50q32 -38 32 -90q0 -69 -52 -116q-65 -57 -204 -57q-89 0 -172 33l29 63q75 -25 134 -25q61 0 90 32q21 23 21 59q0 35 -20 53q-21 20 -88 20q-34 0 -57 -8l-14 11l79 190q-34 6 -64 13q-65 15 -94 15t-46 -24h-27v319h33
q34 -148 88 -214q61 -72 172 -72q92 0 136 51q34 38 34 96q0 93 -107 153l-118 68q-167 95 -210 176q-30 57 -30 119q0 110 79 183q77 71 201 71q73 0 143 -28q34 -13 54 -13q16 0 33 23h22l9 -281h-31q-26 102 -50 145q-62 107 -176 107q-82 0 -124 -49q-33 -38 -33 -90
q0 -88 88 -140l221 -131q101 -60 144 -128q28 -44 28 -115q0 -111 -85 -185q-89 -77 -222 -77z" />
    <glyph glyph-name="Cacute" unicode="&#x106;" horiz-adv-x="1366" 
d="M737 1473h-82l301 303q47 47 87 47q71 0 71 -65q0 -47 -62 -86zM1269 924h-47q-35 122 -72 178q-66 102 -169 155q-91 46 -199 46q-182 0 -311 -119q-176 -164 -176 -490q0 -172 45.5 -305.5t130.5 -207.5q135 -120 331 -120q179 0 334 104q52 35 123 103l37 -36
q-62 -83 -141 -137q-183 -124 -419 -124q-151 0 -286.5 56t-225.5 155q-80 88 -123.5 214.5t-43.5 270.5q0 348 222 542q198 175 469 175q144 0 293 -50q53 -17 82 -17q34 0 62 26q15 14 23 41h43z" />
    <glyph glyph-name="cacute" unicode="&#x107;" horiz-adv-x="909" 
d="M427 1038h-82l301 304q33 33 55 42q11 5 32 5q71 0 71 -65q0 -48 -62 -87zM815 320l29 -19q-83 -161 -156 -225q-109 -96 -248 -96q-163 0 -276 123q-53 57 -83 145.5t-30 187.5q0 252 160 392q131 115 288 115q121 0 217 -57q43 -26 71 -69.5t28 -85.5q0 -32 -24 -57
q-29 -29 -73 -29q-72 0 -98 95l-12 45q-17 63 -41 79q-30 20 -79 20q-117 0 -194 -87q-39 -44 -62 -117.5t-23 -152.5q0 -100 31.5 -186t87.5 -136q85 -77 199 -77q113 0 201 83q35 34 87 109z" />
    <glyph glyph-name="Ccaron" unicode="&#x10c;" horiz-adv-x="1366" 
d="M1063 1815l-256 -342h-127l-254 342h70l247 -211l250 211h70zM1269 924h-47q-35 122 -72 178q-66 102 -169 155q-91 46 -199 46q-182 0 -311 -119q-176 -164 -176 -490q0 -172 45.5 -305.5t130.5 -207.5q135 -120 331 -120q179 0 334 104q52 35 123 103l37 -36
q-62 -83 -141 -137q-183 -124 -419 -124q-151 0 -286.5 56t-225.5 155q-80 88 -123.5 214.5t-43.5 270.5q0 348 222 542q198 175 469 175q144 0 293 -50q53 -17 82 -17q34 0 62 26q15 14 23 41h43z" />
    <glyph glyph-name="ccaron" unicode="&#x10d;" horiz-adv-x="909" 
d="M814 1380l-256 -342h-127l-254 342h70l247 -211l250 211h70zM815 320l29 -19q-83 -161 -156 -225q-109 -96 -248 -96q-163 0 -276 123q-53 57 -83 145.5t-30 187.5q0 252 160 392q131 115 288 115q121 0 217 -57q43 -26 71 -69.5t28 -85.5q0 -32 -24 -57q-29 -29 -73 -29
q-72 0 -98 95l-12 45q-17 63 -41 79q-30 20 -79 20q-117 0 -194 -87q-39 -44 -62 -117.5t-23 -152.5q0 -100 31.5 -186t87.5 -136q85 -77 199 -77q113 0 201 83q35 34 87 109z" />
    <glyph glyph-name="dmacron" unicode="&#x111;" 
d="M696 1079h-248v70h248v25q0 68 -19 86q-20 18 -75 18q-16 0 -45 -2v33q173 45 301 90l10 -4v-246h156v-70h-156v-846q0 -80 21 -97q23 -19 69 -19q11 0 47 2v-33l-301 -106l-8 6v130q-52 -72 -114 -104t-149 -32q-162 0 -269 115q-51 55 -80 141.5t-29 184.5
q0 123 44.5 233.5t123.5 181.5q116 106 259 106q79 0 144 -36q26 -15 70 -52v225zM696 209v471q0 84 -71 151q-58 54 -138 54q-98 0 -169 -79q-39 -43 -63 -126.5t-24 -176.5q0 -114 31.5 -208t85.5 -142q74 -66 166 -66t148 61q34 37 34 61z" />
    <glyph glyph-name="nbspace" unicode="&#xa0;" horiz-adv-x="512" 
 />
    <glyph glyph-name="sfthyphen" unicode="&#xad;" horiz-adv-x="682" 
d="M80 526h504v-129h-504v129z" />
    <glyph glyph-name="overscore" unicode="&#xaf;" 
d="M0 1626h1024v-100h-1024v100z" />
    <glyph glyph-name="middot" unicode="&#xb7;" horiz-adv-x="512" 
d="M257 635q47 0 83 -39q30 -33 30 -77q0 -48 -36 -80q-36 -31 -79 -31q-49 0 -85 38q-27 29 -27 74q0 51 38 86q32 29 76 29z" />
    <glyph glyph-name="glyph262" horiz-adv-x="682" 
d="M660 1815l-256 -342h-127l-254 342h70l247 -211l250 211h70z" />
    <glyph glyph-name="glyph263" horiz-adv-x="682" 
d="M138 1708q43 0 75 -34q27 -29 27 -68q0 -44 -34 -75q-30 -26 -71 -26q-47 0 -75 36q-23 29 -23 66q0 43 35 77q26 24 66 24zM546 1708q43 0 75 -34q27 -30 27 -68q0 -44 -34 -75q-30 -26 -71 -26q-47 0 -75 36q-23 29 -23 66q0 43 35 77q26 24 66 24z" />
    <glyph glyph-name="glyph264" horiz-adv-x="682" 
d="M569 1794h59q-37 -322 -290 -322q-150 0 -229 111q-42 59 -50 128q-5 36 -6 83h59q18 -86 57 -130q59 -69 173 -69q96 0 144 49q42 42 83 150z" />
    <glyph glyph-name="glyph265" horiz-adv-x="682" 
d="M138 1708q43 0 75 -34q27 -29 27 -68q0 -44 -34 -75q-30 -26 -71 -26q-47 0 -75 36q-23 29 -23 66q0 43 35 77q26 24 66 24zM546 1708q43 0 75 -34q27 -30 27 -68q0 -44 -34 -75q-30 -26 -71 -26q-47 0 -75 36q-23 29 -23 66q0 43 35 77q26 24 66 24z" />
    <glyph glyph-name="glyph266" horiz-adv-x="682" 
d="M660 1473h-70l-250 211l-247 -211h-70l254 342h127z" />
    <glyph glyph-name="glyph267" horiz-adv-x="682" 
d="M496 1473h-82l-316 199q-59 37 -59 87q0 64 69 64q40 0 87 -47z" />
    <glyph glyph-name="glyph268" horiz-adv-x="682" 
d="M272 1473h-82l301 303q47 47 87 47q71 0 71 -65q0 -47 -62 -86z" />
    <glyph glyph-name="glyph269" horiz-adv-x="682" 
d="M179 1274q43 0 75 -34q27 -29 27 -68q0 -44 -34 -75q-30 -26 -71 -26q-47 0 -75 36q-23 29 -23 66q0 43 35 77q26 24 66 24zM505 1274q43 0 75 -34q27 -30 27 -68q0 -44 -34 -75q-30 -26 -71 -26q-47 0 -75 36q-23 29 -23 66q0 43 35 77q26 24 66 24z" />
    <glyph glyph-name="glyph270" horiz-adv-x="682" 
d="M343 1708q43 0 75 -34q27 -29 27 -68q0 -44 -34 -75q-30 -26 -71 -26q-47 0 -75 36q-23 29 -23 66q0 43 35 77q26 24 66 24z" />
    <glyph glyph-name="glyph271" horiz-adv-x="682" 
d="M343 1890q87 0 149 -68q53 -58 53 -136q0 -90 -67 -150q-59 -53 -139 -53q-74 0 -130 47q-72 60 -72 157q0 89 68 151q57 52 138 52zM338 1820q-57 0 -95 -43q-36 -41 -36 -91q0 -58 46 -101q34 -32 85 -32q63 0 103 44q34 38 34 90q0 57 -45 98q-38 35 -92 35z" />
    <glyph glyph-name="glyph272" horiz-adv-x="682" 
d="M618 1741h60q-29 -109 -74 -160q-51 -57 -141 -57q-48 0 -87 15q-29 10 -79 34l-47 23q-47 22 -85 22q-70 0 -104 -94h-59q22 94 66 142q60 65 140 65q70 0 144 -37l49 -25q63 -31 110 -31q33 0 57 22q24 21 50 81z" />
    <glyph glyph-name="glyph273" horiz-adv-x="512" 
 />
    </font>
</defs>
</svg>
