<?xml version="1.0" standalone="no"?>
<!DOCTYPE svg PUBLIC "-//W3C//DTD SVG 1.1//EN" "http://www.w3.org/Graphics/SVG/1.1/DTD/svg11.dtd" >
<svg>
<metadata>
Created by FontForge 20120731 at Tue Sep 27 23:09:16 2016
 By www
Copyright (c) 2010 by exljbris Font Foundry. All rights reserved.
</metadata>
<defs>
<font id="GeoticaThree-Regular" horiz-adv-x="300" >
  <font-face 
    font-family="Geotica Three"
    font-weight="600"
    font-stretch="normal"
    units-per-em="1000"
    panose-1="0 0 0 0 0 0 0 0 0 0"
    ascent="775"
    descent="-225"
    x-height="499"
    cap-height="749"
    bbox="-104 -230 1555 970"
    underline-thickness="50"
    underline-position="-50"
    stemh="18"
    stemv="20"
    unicode-range="U+0020-FB06"
  />
<missing-glyph horiz-adv-x="260" 
 />
    <glyph glyph-name="fi" unicode="fi" horiz-adv-x="729" 
d="M19 0v18h86v463h-81v18h81v36c0 128 85 245 260 245c94 0 201 -46 201 -117c0 -40 -31 -63 -63 -63c-33 0 -63 27 -63 62c0 33 29 61 46 74c-34 17 -79 26 -121 26c-47 0 -86 -9 -119 -25v-238h388v-481h86v-18h-313v18h86v463h-247v-463h86v-18h-313z" />
    <glyph glyph-name="fl" unicode="fl" horiz-adv-x="717" 
d="M19 0v18h86v463h-81v18h81v73c0 118 65 207 181 207c34 0 77 -11 106 -34c21 3 42 4 58 4h169v-731h86v-18h-313v18h86v713h-28c-12 0 -27 -1 -42 -3c11 -14 18 -31 18 -52c0 -43 -30 -66 -63 -66c-30 0 -60 24 -60 59c0 38 29 59 65 70c-24 15 -56 22 -82 22
c-14 0 -28 -2 -40 -5v-257h130v-18h-130v-463h86v-18h-313zM363 628c23 0 43 17 43 48c0 20 -8 36 -20 49c-34 -8 -63 -24 -63 -56c0 -25 20 -41 40 -41z" />
    <glyph glyph-name="f_j" unicode="fj" horiz-adv-x="700" 
d="M19 0v18h86v463h-81v18h81v58c0 19 1 38 5 56c21 98 110 166 226 166c97 0 213 -47 213 -117c0 -37 -32 -62 -63 -62c-33 0 -63 27 -63 61c0 33 28 59 44 72c-37 18 -86 28 -130 28c-34 0 -65 -6 -91 -17v-245h373v-503c0 -116 -46 -211 -152 -211c-68 0 -120 39 -120 91
c0 40 29 58 57 58c32 0 54 -25 54 -56c0 -33 -26 -55 -42 -65c14 -6 31 -10 50 -10c26 0 48 7 66 19c-10 19 -54 110 -54 220v439h-232v-463h86v-18h-313z" />
    <glyph glyph-name="f_f_i" unicode="ffi" horiz-adv-x="1103" 
d="M19 0v18h86v463h-81v18h81v63c0 110 67 199 199 199c72 0 125 -27 159 -89l-18 -8c-30 55 -78 79 -141 79c-21 0 -41 -3 -58 -8v-236h239v34c0 129 85 246 260 246c94 0 201 -46 201 -117c0 -40 -31 -63 -63 -63c-33 0 -63 27 -63 62c0 33 29 61 46 74
c-34 17 -79 26 -121 26c-47 0 -86 -9 -119 -25v-237h382v-481h86v-18h-313v18h86v463h-241v-463h86v-18h-313v18h86v463h-239v-463h86v-18h-313z" />
    <glyph glyph-name="f_f_l" unicode="ffl" horiz-adv-x="1097" 
d="M19 0v18h86v463h-81v18h81v63c0 110 67 199 199 199c72 0 125 -27 159 -89l-18 -8c-30 55 -78 79 -141 79c-21 0 -41 -3 -58 -8v-236h239v73c0 119 64 207 181 207c40 0 81 -12 108 -35c15 3 33 5 51 5h174v-731h86v-18h-313v18h86v713h-33c-13 0 -25 -1 -36 -2
c11 -15 17 -32 17 -53c0 -44 -31 -66 -63 -66c-30 0 -60 22 -60 59c0 31 26 56 67 69c-22 15 -53 23 -84 23c-14 0 -28 -1 -40 -4v-258h130v-18h-130v-463h86v-18h-313v18h86v463h-239v-463h86v-18h-313zM703 669c0 -25 20 -41 40 -41c22 0 43 16 43 48c0 19 -7 35 -19 48
c-39 -9 -64 -29 -64 -55z" />
    <glyph glyph-name="f_b" unicode="fb" horiz-adv-x="1003" 
d="M19 0v18h86v463h-81v18h81v63c0 110 64 199 181 199c33 0 67 -7 93 -22c21 7 44 10 69 10h151v-348c9 26 22 48 41 66c30 28 71 44 122 44c126 0 203 -117 203 -264s-88 -259 -217 -259c-61 0 -101 16 -135 35c-25 12 -46 23 -69 23c-24 0 -51 -14 -67 -46h-19v731h-10
c-18 0 -34 -2 -49 -5c18 -16 30 -36 30 -62c0 -42 -31 -64 -63 -64c-33 0 -63 26 -63 62c0 28 21 52 53 68c-21 8 -46 13 -70 13c-15 0 -28 -2 -40 -5v-239h130v-18h-130v-463h86v-18h-313zM599 50c8 -3 15 -7 24 -11c32 -18 70 -33 125 -33c23 0 44 4 64 11v468
c-16 5 -32 8 -50 8c-107 0 -163 -83 -163 -190v-253zM366 618c22 0 43 16 43 46c0 24 -13 42 -33 55c-32 -12 -53 -32 -53 -57c0 -26 20 -44 43 -44z" />
    <glyph glyph-name="f_h" unicode="fh" horiz-adv-x="1074" 
d="M19 0v18h86v463h-81v18h81v63c0 110 64 199 181 199c33 0 67 -7 93 -22c21 7 44 10 69 10h171v-356c9 26 22 48 41 66c35 34 84 52 135 52c61 0 110 -25 140 -69c24 -35 35 -83 35 -135v-295c50 7 88 57 88 118h20c0 -76 -55 -137 -121 -137c-78 0 -128 61 -128 140v356
c-11 2 -23 4 -35 4c-105 0 -175 -84 -175 -186v-289h86v-18h-313v18h86v713h-30c-18 0 -34 -2 -49 -5c18 -16 30 -36 30 -62c0 -42 -31 -64 -63 -64c-33 0 -63 26 -63 62c0 28 21 52 53 68c-21 8 -46 13 -70 13c-15 0 -28 -2 -40 -5v-239h130v-18h-130v-463h86v-18h-313z
M366 618c22 0 43 16 43 46c0 24 -13 42 -33 55c-32 -12 -53 -32 -53 -57c0 -26 20 -44 43 -44z" />
    <glyph glyph-name="f_k" unicode="fk" horiz-adv-x="1027" 
d="M19 0v18h86v463h-81v18h81v63c0 110 64 199 181 199c33 0 67 -7 93 -22c21 7 44 10 69 10h171v-516l259 248h-89v18h192v-18h-74l-139 -132l191 -314c24 22 39 56 39 95h20c0 -71 -48 -137 -125 -137c-39 0 -88 16 -120 74l-105 186l-49 -47v-188h86v-18h-313v18h86v713
h-30c-18 0 -34 -2 -49 -5c18 -16 30 -36 30 -62c0 -42 -31 -64 -63 -64c-33 0 -63 26 -63 62c0 28 21 52 53 68c-21 8 -46 13 -70 13c-15 0 -28 -2 -40 -5v-239h130v-18h-130v-463h86v-18h-313zM366 618c22 0 43 16 43 46c0 24 -13 42 -33 55c-32 -12 -53 -32 -53 -57
c0 -26 20 -44 43 -44z" />
    <glyph glyph-name="f_f_b" unicode="ffb" horiz-adv-x="1383" 
d="M19 0v18h86v463h-81v18h81v63c0 110 63 199 189 199c68 0 117 -27 149 -89l-18 -8c-28 55 -72 79 -131 79c-18 0 -34 -2 -48 -6v-238h239v73c0 119 64 207 181 207c40 0 80 -12 107 -34c16 2 33 4 52 4h154v-348c9 26 22 48 41 66c30 28 71 44 122 44
c126 0 203 -117 203 -264s-88 -259 -217 -259c-61 0 -101 16 -135 35c-25 12 -46 23 -69 23c-24 0 -51 -14 -67 -46h-19v731h-13c-13 0 -25 -1 -37 -2c11 -15 18 -32 18 -53c0 -44 -31 -66 -63 -66c-30 0 -60 22 -60 59c0 35 25 58 66 70c-23 15 -53 22 -83 22
c-14 0 -28 -1 -40 -4v-258h130v-18h-130v-463h86v-18h-313v18h86v463h-239v-463h86v-18h-313zM979 50c8 -3 15 -7 24 -11c32 -18 70 -33 125 -33c23 0 44 4 64 11v468c-16 5 -32 8 -50 8c-105 0 -161 -79 -163 -182v-261zM703 669c0 -25 20 -41 40 -41c22 0 43 16 43 48
c0 20 -8 36 -20 49c-38 -9 -63 -27 -63 -56z" />
    <glyph glyph-name="f_f_h" unicode="ffh" horiz-adv-x="1454" 
d="M19 0v18h86v463h-81v18h81v63c0 110 65 199 194 199c70 0 121 -28 154 -89l-18 -8c-29 55 -74 79 -136 79c-20 0 -37 -2 -53 -7v-237h239v73c0 119 64 207 181 207c40 0 80 -12 107 -34c16 2 33 4 52 4h174v-356c9 26 22 48 41 66c35 34 84 52 135 52
c61 0 110 -25 140 -69c24 -35 35 -83 35 -135v-295c50 7 88 57 88 118h20c0 -76 -55 -137 -121 -137c-78 0 -128 61 -128 140v356c-11 2 -23 4 -35 4c-103 0 -172 -80 -175 -179v-296h86v-18h-313v18h86v713h-33c-13 0 -25 -1 -37 -2c11 -15 18 -32 18 -53
c0 -44 -31 -66 -63 -66c-30 0 -60 22 -60 59c0 35 25 58 66 70c-23 15 -53 22 -83 22c-14 0 -28 -1 -40 -4v-258h130v-18h-130v-463h86v-18h-313v18h86v463h-239v-463h86v-18h-313zM703 669c0 -25 20 -41 40 -41c22 0 43 16 43 48c0 20 -8 36 -20 49c-38 -9 -63 -27 -63 -56
z" />
    <glyph glyph-name="f_f_k" unicode="ffk" horiz-adv-x="1407" 
d="M19 0v18h86v463h-81v18h81v63c0 110 65 199 194 199c70 0 121 -28 154 -89l-18 -8c-29 55 -74 79 -136 79c-20 0 -37 -2 -53 -7v-237h239v73c0 119 64 207 181 207c40 0 80 -12 107 -35c15 3 34 5 52 5h174v-516l260 248h-89v18h192v-18h-74l-139 -133l190 -313
c24 22 39 56 39 95h20c0 -71 -48 -137 -125 -137c-39 0 -88 16 -120 74l-105 186l-49 -47v-188h86v-18h-313v18h86v713h-33c-13 0 -25 -1 -36 -2c11 -15 17 -32 17 -53c0 -44 -31 -66 -63 -66c-30 0 -60 22 -60 59c0 31 26 56 67 69c-22 15 -53 23 -84 23
c-14 0 -28 -1 -40 -4v-258h130v-18h-130v-463h86v-18h-313v18h86v463h-239v-463h86v-18h-313zM703 669c0 -25 20 -41 40 -41c22 0 43 16 43 48c0 19 -7 35 -19 48c-39 -9 -64 -29 -64 -55z" />
    <glyph glyph-name="f_f_j" unicode="ffj" horiz-adv-x="1080" 
d="M19 0v18h86v463h-81v18h81v63c0 110 67 199 199 199c72 0 125 -27 159 -89l-18 -8c-30 55 -78 79 -141 79c-21 0 -41 -3 -58 -8v-236h239v63c0 113 83 217 233 217c94 0 211 -47 211 -117c0 -37 -32 -62 -63 -62c-33 0 -63 27 -63 62c0 32 28 58 44 71
c-37 18 -86 28 -129 28c-35 0 -66 -6 -92 -17v-245h373v-503c0 -116 -46 -211 -152 -211c-68 0 -120 39 -120 91c0 40 29 58 57 58c32 0 54 -25 54 -56c0 -33 -26 -55 -42 -65c14 -6 31 -10 50 -10c26 0 48 7 66 19c-10 19 -54 110 -54 220v439h-232v-463h86v-18h-313v18h86
v463h-239v-463h86v-18h-313z" />
    <glyph glyph-name="ff" unicode="ff" horiz-adv-x="760" 
d="M19 0v18h86v463h-81v18h81v63c0 110 65 199 194 199c70 0 121 -28 154 -89l-18 -8c-29 55 -74 79 -136 79c-20 0 -37 -2 -53 -7v-237h239v63c0 110 61 199 184 199c73 0 160 -32 160 -98c0 -40 -31 -63 -63 -63c-33 0 -63 27 -63 62c0 31 25 56 42 68
c-24 9 -51 13 -76 13c-16 0 -30 -2 -43 -5v-239h130v-18h-130v-463h86v-18h-313v18h86v463h-239v-463h86v-18h-313z" />
    <glyph glyph-name=".notdef" horiz-adv-x="260" 
 />
    <glyph glyph-name="exclam" unicode="!" horiz-adv-x="306" 
d="M141 194c-60 368 -67 430 -67 464c0 62 18 103 79 103s79 -41 79 -100c0 -39 -8 -84 -72 -467h-19zM76 62c0 41 33 74 75 74s75 -33 75 -74s-33 -74 -75 -74s-75 33 -75 74z" />
    <glyph glyph-name="quotedbl" unicode="&#x22;" horiz-adv-x="342" 
d="M95 523c-36 148 -40 171 -40 186c0 22 10 36 41 36c32 0 42 -14 42 -34c0 -15 -5 -39 -43 -188zM245 523c-36 148 -40 171 -40 186c0 22 10 36 41 36c32 0 42 -14 42 -34c0 -15 -5 -39 -43 -188z" />
    <glyph glyph-name="numbersign" unicode="#" horiz-adv-x="761" 
d="M199 0l47 261h-214v18h218l36 202h-215v18h219l44 243h21l-44 -243h179l44 243h21l-44 -243h218v-18h-222l-36 -202h219v-18h-223l-47 -261h-21l47 261h-179l-47 -261h-21zM271 279h179l36 202h-179z" />
    <glyph glyph-name="dollar" unicode="$" horiz-adv-x="585" 
d="M51 0v224h20v-69c9 -13 79 -99 193 -121v272l-99 64c-93 60 -118 98 -118 165c0 120 99 188 217 197v71h20v-70h5c12 0 24 -1 35 -2v72h20v-75c74 -12 123 -45 148 -66v80h20v-209h-20v102c-8 9 -58 59 -148 75v-277l84 -53c80 -51 120 -89 120 -167
c0 -116 -96 -188 -204 -200v-77h-20v76h-11c-10 0 -20 0 -29 1v-77h-20v80c-96 17 -163 77 -193 110v-126h-20zM264 484v230c-81 -6 -151 -43 -181 -106c3 -6 15 -19 55 -44zM344 32c71 8 136 45 166 105c-6 7 -25 27 -56 47l-110 70v-222zM284 471l40 -25v267
c-12 1 -23 2 -35 2h-5v-244zM284 31c9 -1 19 -1 29 -1h11v237l-40 26v-262z" />
    <glyph glyph-name="percent" unicode="%" horiz-adv-x="683" 
d="M66 5l536 745l16 -10l-536 -745zM169 489c-76 0 -137 61 -137 136s61 136 137 136s137 -61 137 -136s-61 -136 -137 -136zM169 507c64 0 117 53 117 118s-53 118 -117 118s-117 -53 -117 -118s53 -118 117 -118zM376 123c0 75 61 136 137 136s137 -61 137 -136
s-61 -136 -137 -136s-137 61 -137 136zM396 123c0 -65 53 -118 117 -118s117 53 117 118s-53 118 -117 118s-117 -53 -117 -118z" />
    <glyph glyph-name="ampersand" unicode="&#x26;" horiz-adv-x="733" 
d="M209 26c37 -14 78 -20 119 -20c148 0 257 89 257 202c0 57 -23 113 -61 152c-43 22 -73 36 -105 36c-46 0 -86 -35 -86 -88c0 -28 11 -53 39 -75l-12 -14c-34 26 -47 55 -47 89c0 63 50 106 106 106c73 0 131 -65 206 -65c49 0 83 31 83 78c0 25 -10 47 -36 65l12 14
c32 -22 44 -49 44 -79c0 -57 -42 -96 -103 -96c-22 0 -43 5 -63 12c27 -39 43 -87 43 -135c0 -123 -117 -220 -277 -220c-146 0 -289 81 -289 227c0 117 89 167 133 185c-49 28 -93 82 -93 163c0 139 133 198 229 198c102 0 200 -53 200 -110c0 -44 -32 -62 -63 -62
c-32 0 -63 21 -63 61c0 29 30 53 48 65c-33 17 -77 28 -122 28c-31 0 -67 -7 -99 -21v-696z" />
    <glyph glyph-name="quotesingle" unicode="'" horiz-adv-x="192" 
d="M86 482c-46 185 -51 207 -51 227c0 32 14 54 61 54c48 0 62 -22 62 -52c0 -20 -6 -43 -54 -229h-18z" />
    <glyph glyph-name="parenleft" unicode="(" horiz-adv-x="263" 
d="M40 299c0 256 119 469 255 469v-18c-126 0 -235 -205 -235 -451c0 -235 109 -444 235 -444v-18c-136 0 -255 217 -255 462z" />
    <glyph glyph-name="parenright" unicode=")" horiz-adv-x="263" 
d="M-32 -145c126 0 235 205 235 451c0 235 -109 444 -235 444v18c136 0 255 -217 255 -462c0 -256 -119 -469 -255 -469v18z" />
    <glyph glyph-name="asterisk" unicode="*" horiz-adv-x="467" 
d="M223 324v178h20v-178h-20zM223 580v177h20v-177h-20zM261 513l10 16l154 -89l-10 -16zM271 551l-10 16l154 89l10 -16zM194 552l-153 89l10 16l153 -89zM51 425l-10 16l153 88l10 -16z" />
    <glyph glyph-name="plus" unicode="+" horiz-adv-x="700" 
d="M64 332v18h271v316h20v-316h279v-18h-279v-286h-20v286h-271z" />
    <glyph glyph-name="comma" unicode="," horiz-adv-x="259" 
d="M52 60c0 36 27 70 72 70c64 0 88 -62 88 -121c0 -86 -48 -179 -140 -179v18c78 0 120 83 120 161v2c-17 -12 -40 -23 -66 -23c-47 0 -74 35 -74 72z" />
    <glyph glyph-name="hyphen" unicode="-" horiz-adv-x="424" 
d="M61 248v82h302v-82h-302z" />
    <glyph glyph-name="period" unicode="." horiz-adv-x="254" 
d="M52 62c0 41 33 74 75 74s75 -33 75 -74s-33 -74 -75 -74s-75 33 -75 74z" />
    <glyph glyph-name="slash" unicode="/" horiz-adv-x="367" 
d="M22 -198l300 943l20 -6l-300 -943z" />
    <glyph glyph-name="zero" unicode="0" horiz-adv-x="760" 
d="M45 372c0 206 138 389 335 389s335 -183 335 -389c0 -199 -138 -384 -335 -384s-335 185 -335 384zM215 59c47 -33 103 -53 165 -53s118 20 165 53v631c-47 33 -103 53 -165 53s-118 -20 -165 -53v-631z" />
    <glyph glyph-name="one" unicode="1" horiz-adv-x="452" 
d="M33 0v18h136v618c-36 -14 -80 -23 -131 -23v18c185 0 257 125 257 125h20v-738h136v-18h-418z" />
    <glyph glyph-name="two" unicode="2" horiz-adv-x="616" 
d="M43 0c-5 98 26 169 69 220c53 63 117 88 210 124l56 22v363c-30 9 -61 14 -91 14c-71 0 -134 -24 -175 -56c21 -16 57 -47 57 -82c0 -32 -30 -60 -62 -60c-26 0 -63 19 -63 61c0 73 109 155 243 155c121 0 261 -66 261 -216c0 -129 -103 -172 -218 -217
c-97 -38 -153 -59 -204 -120c-18 -21 -34 -47 -46 -79h473c1 10 2 21 2 32c0 21 -2 39 -8 58l20 2c6 -19 8 -38 8 -59c0 -81 -30 -162 -150 -162h-382z" />
    <glyph glyph-name="three" unicode="3" horiz-adv-x="617" 
d="M105 63c43 -33 110 -57 184 -57c33 0 68 5 101 15v352h-103v18h103v338c-31 9 -64 14 -94 14c-72 0 -136 -24 -177 -57c21 -15 57 -46 57 -81c0 -32 -30 -60 -62 -60c-27 0 -63 19 -63 62c0 72 108 154 245 154c118 0 259 -59 259 -202c0 -89 -55 -145 -129 -176
c81 -29 139 -88 139 -180c0 -148 -148 -215 -276 -215c-140 0 -253 82 -253 154c0 43 37 62 63 62c32 0 62 -28 62 -60c0 -35 -35 -65 -56 -81z" />
    <glyph glyph-name="four" unicode="4" horiz-adv-x="629" 
d="M0 236v17l371 496h120v-495h120v-18h-120v-218h91v-18h-328v18h91v218h-345zM24 254h321v429z" />
    <glyph glyph-name="five" unicode="5" horiz-adv-x="598" 
d="M103 63c43 -33 110 -57 184 -57c33 0 69 5 102 16v397c-34 11 -70 16 -105 16c-73 0 -145 -24 -190 -47l-15 10l10 351h418c1 10 1 21 1 32v15h20v-15c0 -96 -14 -171 -158 -171h-265l-6 -199c48 22 116 42 185 42c136 0 280 -70 280 -230c0 -161 -148 -235 -277 -235
c-137 0 -252 82 -252 154c0 43 37 62 63 62c32 0 62 -28 62 -60c0 -36 -36 -65 -57 -81z" />
    <glyph glyph-name="six" unicode="6" horiz-adv-x="661" 
d="M357 -12c-166 0 -310 151 -310 370c0 207 129 403 330 403c105 0 221 -54 221 -134c0 -44 -35 -62 -63 -62c-33 0 -62 26 -62 60c0 35 32 63 53 78c-39 25 -95 40 -148 40c-64 0 -120 -21 -166 -57v-283c43 37 98 62 161 62c115 0 247 -85 247 -226
c0 -133 -116 -251 -263 -251zM212 51c43 -29 92 -45 144 -45c33 0 65 6 94 18v409c-26 9 -52 14 -77 14c-67 0 -122 -32 -161 -69v-327z" />
    <glyph glyph-name="seven" unicode="7" horiz-adv-x="575" 
d="M128 53c0 56 53 103 100 149l170 166l110 242h-457v-87h-20v226h554v-16l-296 -652c-22 -49 -52 -93 -100 -93c-36 0 -61 24 -61 65z" />
    <glyph glyph-name="eight" unicode="8" horiz-adv-x="672" 
d="M46 205c0 87 62 157 151 193c-74 33 -125 93 -125 167c0 113 120 196 264 196s264 -83 264 -196c0 -74 -52 -134 -126 -167c90 -36 152 -106 152 -193c0 -126 -132 -217 -290 -217s-290 91 -290 217zM232 21c32 -10 67 -15 104 -15s72 5 104 15v367h-208v-367zM232 406
h208v321c-32 10 -67 16 -104 16s-73 -6 -104 -16v-321z" />
    <glyph glyph-name="nine" unicode="9" horiz-adv-x="658" 
d="M60 121c0 45 37 63 63 63c32 0 62 -28 62 -60c0 -35 -33 -64 -53 -79c39 -25 96 -39 148 -39c64 0 119 22 166 59v290c-43 -41 -100 -68 -161 -68c-111 0 -242 88 -242 230c0 132 114 244 261 244c164 0 307 -139 307 -358c0 -208 -129 -415 -332 -415
c-104 0 -219 55 -219 133zM213 317c23 -8 47 -12 71 -12c66 0 124 34 162 76v321c-42 26 -91 41 -141 41c-33 0 -64 -6 -92 -17v-409z" />
    <glyph glyph-name="colon" unicode=":" horiz-adv-x="294" 
d="M72 62c0 41 33 74 75 74s75 -33 75 -74s-33 -74 -75 -74s-75 33 -75 74zM147 363c-42 0 -75 33 -75 74s33 74 75 74s75 -33 75 -74s-33 -74 -75 -74z" />
    <glyph glyph-name="semicolon" unicode=";" horiz-adv-x="297" 
d="M69 60c0 36 27 70 72 70c64 0 88 -62 88 -121c0 -86 -48 -179 -140 -179v18c78 0 120 83 120 161v2c-17 -12 -40 -23 -66 -23c-47 0 -74 35 -74 72zM150 363c-42 0 -75 33 -75 74s33 74 75 74s75 -33 75 -74s-33 -74 -75 -74z" />
    <glyph glyph-name="less" unicode="&#x3c;" horiz-adv-x="700" 
d="M39 332v16l570 300l10 -16l-555 -292l555 -292l-10 -16z" />
    <glyph glyph-name="equal" unicode="=" horiz-adv-x="700" 
d="M65 232v18h570v-18h-570zM65 432v18h570v-18h-570z" />
    <glyph glyph-name="greater" unicode="&#x3e;" horiz-adv-x="700" 
d="M81 48l555 292l-555 292l10 16l570 -300v-16l-570 -300z" />
    <glyph glyph-name="question" unicode="?" horiz-adv-x="536" 
d="M240 195v33c0 68 41 105 90 137v368c-24 6 -48 10 -72 10c-66 0 -123 -24 -161 -55c22 -17 56 -49 56 -82s-30 -61 -62 -61c-26 0 -63 18 -63 60c0 67 99 156 230 156c120 0 242 -75 242 -210c0 -98 -72 -147 -135 -186c-52 -33 -105 -69 -105 -137v-33h-20zM179 62
c0 41 33 74 75 74s75 -33 75 -74s-33 -74 -75 -74s-75 33 -75 74z" />
    <glyph glyph-name="at" unicode="@" horiz-adv-x="892" 
d="M34 262c0 224 162 420 423 420c223 0 387 -144 387 -359c0 -190 -113 -293 -212 -293c-56 0 -114 29 -128 89c-5 -15 -10 -29 -19 -42c-22 -32 -57 -55 -107 -55c-95 0 -151 83 -151 206c0 206 153 261 246 261c81 0 162 -45 162 -45v-396c88 2 189 99 189 275
c0 205 -156 341 -367 341c-249 0 -403 -188 -403 -402c0 -237 189 -416 423 -416v-18c-246 0 -443 187 -443 434zM370 40h8c87 0 120 86 123 158v271c-9 1 -19 2 -28 2c-30 0 -68 -7 -103 -24v-407z" />
    <glyph glyph-name="A" unicode="A" horiz-adv-x="730" 
d="M-20 0v18h69l303 734h18l320 -734h60v-18h-307v18h91l-84 196h-299l-81 -196h102v-18h-192zM158 232h285l-144 340z" />
    <glyph glyph-name="B" unicode="B" horiz-adv-x="758" 
d="M52 0v18h91v713h-91v18h398c145 0 231 -85 231 -187c0 -76 -50 -131 -130 -162c88 -35 140 -104 140 -185c0 -117 -87 -215 -241 -215h-398zM289 18h161c24 0 46 3 66 7v367h-227v-374zM289 410h227v314c-20 4 -42 7 -66 7h-161v-321z" />
    <glyph glyph-name="C" unicode="C" horiz-adv-x="811" 
d="M225 68c55 -39 125 -62 206 -62c201 0 294 143 309 252l20 -2c-16 -115 -114 -268 -329 -268c-230 0 -375 176 -375 392c0 217 170 381 381 381c139 0 236 -73 274 -108v104h20v-194h-20v62c-11 13 -111 118 -274 118c-79 0 -153 -25 -212 -68v-607z" />
    <glyph glyph-name="D" unicode="D" horiz-adv-x="861" 
d="M52 0v18h91v713h-91v18h361c230 0 392 -168 392 -371c0 -210 -162 -378 -392 -378h-361zM289 18h124c87 0 164 25 225 69v575c-61 43 -138 69 -225 69h-124v-713z" />
    <glyph glyph-name="E" unicode="E" horiz-adv-x="735" 
d="M52 0v18h91v713h-91v18h606v-186h-20v168h-349v-347h241v106h20v-226h-20v102h-241v-348h359v169h20v-187h-616z" />
    <glyph glyph-name="F" unicode="F" horiz-adv-x="692" 
d="M52 0v18h91v713h-91v18h606v-186h-20v168h-349v-352h255v106h20v-226h-20v102h-255v-343h96v-18h-333z" />
    <glyph glyph-name="G" unicode="G" horiz-adv-x="861" 
d="M224 75c59 -43 133 -69 217 -69c75 0 121 21 157 39l14 7v261h-91v18h303v-18h-66v-313h-17c-18 36 -48 50 -71 50c-20 0 -42 -10 -65 -21c-38 -18 -86 -41 -167 -41c-222 0 -383 178 -383 393c0 217 164 380 397 380c148 0 232 -66 266 -100v96h20v-194h-20v69
c-6 8 -85 111 -266 111c-89 0 -166 -25 -228 -68v-600z" />
    <glyph glyph-name="H" unicode="H" horiz-adv-x="957" 
d="M52 0v18h91v713h-91v18h328v-18h-91v-345h379v345h-91v18h328v-18h-91v-713h91v-18h-328v18h91v350h-379v-350h91v-18h-328z" />
    <glyph glyph-name="I" unicode="I" horiz-adv-x="432" 
d="M52 0v18h91v713h-91v18h328v-18h-91v-713h91v-18h-328z" />
    <glyph glyph-name="J" unicode="J" horiz-adv-x="482" 
d="M14 92c0 42 32 65 67 65c38 0 66 -29 66 -62c0 -30 -24 -58 -48 -75c24 -9 53 -14 78 -14c11 0 21 1 31 2v723h-91v18h328v-18h-91v-539c0 -115 -59 -204 -177 -204c-71 0 -163 33 -163 104z" />
    <glyph glyph-name="K" unicode="K" horiz-adv-x="812" 
d="M52 0v18h91v713h-91v18h328v-18h-91v-369l357 369h-103v18h202v-18h-73l-230 -238l278 -464c34 23 54 64 54 111h20c0 -81 -55 -147 -137 -147c-28 0 -63 8 -92 29c-18 13 -31 28 -44 50l-182 315l-50 -51v-318h91v-18h-328z" />
    <glyph glyph-name="L" unicode="L" horiz-adv-x="681" 
d="M52 0v18h91v713h-91v18h328v-18h-91v-713h344v189h20v-207h-601z" />
    <glyph glyph-name="M" unicode="M" horiz-adv-x="1036" 
d="M52 0v18h91v713h-91v18h218l250 -562l226 562h238v-18h-91v-713h91v-18h-328v18h91v680l-281 -698h-19l-284 627v-609h91v-18h-202z" />
    <glyph glyph-name="N" unicode="N" horiz-adv-x="880" 
d="M52 0v18h91v713h-91v18h211l461 -529v511h-91v18h202v-18h-91v-731h-20l-561 637v-619h91v-18h-202z" />
    <glyph glyph-name="O" unicode="O" horiz-adv-x="908" 
d="M54 372c0 215 179 389 400 389s400 -174 400 -389c0 -214 -179 -384 -400 -384s-400 170 -400 384zM224 80c64 -47 143 -74 230 -74c86 0 166 27 230 74v587c-64 47 -144 76 -230 76c-87 0 -166 -29 -230 -76v-587z" />
    <glyph glyph-name="P" unicode="P" horiz-adv-x="740" 
d="M52 0v18h91v713h-91v18h413c148 0 246 -103 246 -228c0 -120 -98 -220 -246 -220h-176v-283h91v-18h-328zM289 319h176c31 0 60 4 86 13v385c-26 9 -55 14 -86 14h-176v-412z" />
    <glyph glyph-name="Q" unicode="Q" horiz-adv-x="908" 
d="M54 372c0 214 179 389 400 389s400 -175 400 -389c0 -170 -113 -312 -270 -364c19 -58 47 -146 119 -146c50 0 78 44 78 95h20c0 -62 -34 -113 -98 -113c-85 0 -116 91 -139 158c-35 -9 -72 -14 -110 -14c-221 0 -400 170 -400 384zM224 81c39 -29 85 -51 135 -64
c6 62 50 106 109 106c63 0 92 -50 110 -97c38 12 74 31 106 54v586c-64 48 -144 77 -230 77c-87 0 -166 -29 -230 -77v-585zM378 13c25 -4 50 -7 77 -7c35 0 70 5 103 14c-16 42 -38 85 -90 85c-49 0 -85 -37 -90 -92z" />
    <glyph glyph-name="R" unicode="R" horiz-adv-x="797" 
d="M52 0v18h91v713h-91v18h383c145 0 241 -89 241 -202c0 -77 -42 -146 -125 -186c83 -33 116 -97 116 -173v-181c57 8 98 59 98 123h20c0 -79 -56 -142 -134 -142s-135 63 -135 147v216h-227v-333h91v-18h-328zM289 369h227v351c-25 7 -52 11 -81 11h-146v-362z" />
    <glyph glyph-name="S" unicode="S" horiz-adv-x="653" 
d="M70 0v219h20v-88c9 -12 103 -125 256 -125c91 0 177 41 213 117c-4 10 -16 33 -50 55l-314 199c-88 56 -119 96 -119 169c0 143 118 215 251 215c111 0 183 -49 214 -76v72h20v-194h-20v95c-10 11 -82 85 -214 85c-94 0 -178 -38 -214 -114c3 -9 14 -29 51 -53l314 -201
c76 -49 119 -87 119 -170c0 -138 -120 -217 -250 -217s-221 77 -257 115v-103h-20z" />
    <glyph glyph-name="T" unicode="T" horiz-adv-x="743" 
d="M207 0v18h91v713h-253v-168h-20v186h693v-186h-20v168h-254v-713h91v-18h-328z" />
    <glyph glyph-name="U" unicode="U" horiz-adv-x="850" 
d="M263 47c48 -28 107 -41 170 -41c153 0 280 89 280 282v443h-91v18h202v-18h-91v-443c0 -205 -137 -300 -300 -300c-172 0 -316 95 -316 300v443h-91v18h328v-18h-91v-684z" />
    <glyph glyph-name="V" unicode="V" horiz-adv-x="734" 
d="M363 -6l-326 737h-60v18h312v-18h-89l238 -553l226 553h-97v18h192v-18h-75l-301 -737h-20z" />
    <glyph glyph-name="W" unicode="W" horiz-adv-x="1054" 
d="M363 -6l-326 737h-60v18h793v-18h-76l-84 -212l147 -343l227 555h-97v18h192v-18h-75l-301 -737h-20l-155 351l-145 -351h-20zM437 175l80 194l-160 362h-158zM599 544l75 187h-155z" />
    <glyph glyph-name="X" unicode="X" horiz-adv-x="764" 
d="M6 0v18h76l239 324l-254 389h-62v18h316v-18h-84l194 -296l217 296h-97v18h202v-18h-81l-230 -313l262 -400h61v-18h-307v18h76l-202 307l-227 -307h98v-18h-197z" />
    <glyph glyph-name="Y" unicode="Y" horiz-adv-x="730" 
d="M211 0v18h90v318l-272 395h-58v18h333v-18h-104l236 -344l210 344h-100v18h202v-18h-78l-223 -366v-347h92v-18h-328z" />
    <glyph glyph-name="Z" unicode="Z" horiz-adv-x="729" 
d="M48 0v17l452 714h-416v-170h-20v188h606v-17l-452 -714h432v175h20v-193h-622z" />
    <glyph glyph-name="bracketleft" unicode="[" horiz-adv-x="243" 
d="M114 -145h127v-18h-147v931h147v-18h-127v-895z" />
    <glyph glyph-name="backslash" unicode="\" horiz-adv-x="367" 
d="M325 -204l-300 943l20 6l300 -943z" />
    <glyph glyph-name="bracketright" unicode="]" horiz-adv-x="243" 
d="M2 -145h127v895h-127v18h147v-931h-147v18z" />
    <glyph glyph-name="asciicircum" unicode="^" horiz-adv-x="672" 
d="M134 449l-16 10l210 303h16l210 -303l-16 -10l-202 291z" />
    <glyph glyph-name="underscore" unicode="_" horiz-adv-x="666" 
d="M1 -84h664v-18h-664v18z" />
    <glyph glyph-name="grave" unicode="`" 
d="M179 790l-152 101l12 16l152 -101z" />
    <glyph glyph-name="a" unicode="a" horiz-adv-x="563" 
d="M28 125c0 87 62 134 149 134h38c62 0 108 27 110 70v157c-17 5 -36 7 -55 7c-44 0 -88 -10 -122 -27c15 -12 44 -40 44 -71c0 -36 -31 -60 -63 -60c-34 0 -63 26 -63 62c0 62 104 114 204 114c120 0 197 -75 197 -207v-292c51 9 87 58 87 118h20
c0 -76 -52 -137 -124 -137c-57 0 -101 36 -118 90c-4 -17 -12 -32 -24 -46c-27 -30 -69 -49 -127 -49c-104 0 -153 60 -153 137zM178 6h2c97 0 145 61 145 134v143c-9 -12 -21 -22 -37 -29c-20 -9 -45 -13 -73 -13h-37v-235z" />
    <glyph glyph-name="b" unicode="b" horiz-adv-x="623" 
d="M78 0v731h-86v18h227v-348c9 26 22 48 41 66c30 28 71 44 122 44c126 0 203 -117 203 -264s-88 -259 -217 -259c-61 0 -100 17 -135 35c-25 13 -46 23 -69 23c-24 0 -51 -14 -67 -46h-19zM219 51l24 -12c33 -17 70 -33 125 -33c23 0 44 4 64 11v468c-16 5 -32 8 -50 8
c-105 0 -163 -82 -163 -182v-260z" />
    <glyph glyph-name="c" unicode="c" horiz-adv-x="525" 
d="M183 30c30 -16 65 -24 103 -24c149 0 194 135 194 135l18 -6s-49 -147 -212 -147c-147 0 -251 119 -251 262c0 147 114 261 258 261c91 0 197 -47 197 -114c0 -36 -30 -62 -63 -62s-63 27 -63 62c0 33 26 56 45 70c-34 16 -77 26 -116 26c-40 0 -77 -10 -110 -27v-436z
" />
    <glyph glyph-name="d" unicode="d" horiz-adv-x="662" 
d="M242 -12c-130 0 -204 126 -204 264c0 167 100 259 207 259c49 0 90 -16 121 -42c20 -17 34 -38 43 -61v323h-86v18h227v-737c50 7 88 57 88 118h20c0 -76 -55 -137 -121 -137c-70 0 -118 49 -127 116c-10 -34 -28 -63 -55 -84c-30 -23 -68 -37 -113 -37zM191 14
c15 -6 32 -8 51 -8c101 0 164 79 167 178v146c0 90 -65 163 -164 163c-19 0 -37 -3 -54 -9v-470z" />
    <glyph glyph-name="e" unicode="e" horiz-adv-x="544" 
d="M184 30c30 -15 65 -24 103 -24c148 0 196 135 196 135l18 -6s-52 -147 -214 -147c-147 0 -252 120 -252 262c0 144 110 261 248 261c132 0 224 -109 233 -244h-332v-237zM184 285h172v195c-23 8 -47 13 -73 13c-36 0 -69 -9 -99 -24v-184z" />
    <glyph glyph-name="f" unicode="f" horiz-adv-x="380" 
d="M19 0v18h86v463h-81v18h81v63c0 47 11 90 33 124c30 46 81 75 151 75c73 0 160 -32 160 -98c0 -40 -31 -63 -62 -63c-34 0 -64 27 -64 62c0 31 25 56 42 68c-24 9 -51 13 -75 13c-17 0 -31 -2 -44 -5v-239h130v-18h-130v-463h86v-18h-313z" />
    <glyph glyph-name="g" unicode="g" horiz-adv-x="543" 
d="M75 12c-17 21 -27 49 -27 81c0 62 38 104 84 123c-46 30 -70 77 -70 129c0 92 76 166 214 166c44 0 83 -8 114 -21c25 3 52 9 75 18c-17 13 -45 38 -45 70c0 31 26 59 63 59c36 0 63 -26 63 -62c0 -56 -64 -87 -130 -99c49 -31 75 -78 75 -131c0 -91 -76 -167 -215 -167
c-49 0 -90 9 -123 26c-44 -13 -85 -53 -85 -111v-5h267c150 0 198 -64 198 -133c0 -99 -108 -170 -258 -170c-141 0 -237 69 -237 146c0 32 11 58 37 81zM88 -1c-21 -20 -30 -42 -30 -68c0 -67 88 -128 217 -128c138 0 238 63 238 152v6h-326c-38 0 -74 14 -99 38zM194 207
c24 -7 51 -11 82 -11s59 4 83 11v275c-24 7 -52 11 -83 11s-58 -4 -82 -11v-275z" />
    <glyph glyph-name="h" unicode="h" horiz-adv-x="694" 
d="M12 0v18h86v713h-86v18h227v-356c9 26 22 48 41 66c35 34 84 52 135 52c61 0 110 -25 140 -69c24 -35 35 -83 35 -135v-295c50 7 88 57 88 118h20c0 -76 -55 -137 -121 -137c-78 0 -128 61 -128 140v356c-11 2 -23 4 -35 4c-103 0 -172 -80 -175 -179v-296h86v-18h-313z
" />
    <glyph glyph-name="i" unicode="i" horiz-adv-x="346" 
d="M21 0v18h86v463h-86v18h227v-481h86v-18h-313zM177 586c-37 0 -70 32 -70 69s33 69 70 69s70 -32 70 -69s-33 -69 -70 -69z" />
    <glyph glyph-name="j" unicode="j" horiz-adv-x="322" 
d="M24 -66c32 0 54 -25 54 -56c0 -33 -26 -55 -42 -65c14 -6 31 -10 50 -10c26 0 48 7 66 19c-10 19 -54 110 -54 220v439h-86v18h227v-503c0 -116 -46 -211 -152 -211c-68 0 -120 39 -120 91c0 40 29 58 57 58zM168 586c-37 0 -70 32 -70 69s33 69 70 69s70 -32 70 -69
s-33 -69 -70 -69z" />
    <glyph glyph-name="k" unicode="k" horiz-adv-x="647" 
d="M12 0v18h86v713h-86v18h227v-516l259 248h-89v18h192v-18h-74l-139 -132l190 -314c24 22 40 56 40 95h20c0 -76 -54 -137 -123 -137c-22 0 -49 6 -72 20c-18 11 -36 29 -50 54l-105 186l-49 -47v-188h86v-18h-313z" />
    <glyph glyph-name="l" unicode="l" horiz-adv-x="337" 
d="M12 0v18h86v713h-86v18h227v-731h86v-18h-313z" />
    <glyph glyph-name="m" unicode="m" horiz-adv-x="1044" 
d="M21 0v18h86v463h-86v18h227v-106c9 26 22 48 41 66c35 34 81 52 132 52c61 0 108 -25 138 -69c13 -19 21 -42 27 -67c9 34 26 62 49 84c35 34 81 52 132 52c61 0 108 -25 138 -69c24 -35 35 -83 35 -135v-295c51 9 88 58 88 118h20c0 -76 -52 -137 -124 -137
c-73 0 -125 61 -125 140v357c-10 2 -21 3 -32 3c-103 0 -173 -84 -173 -186v-289h86v-18h-227v490c-10 2 -21 3 -32 3c-101 0 -170 -80 -173 -179v-296h86v-18h-313z" />
    <glyph glyph-name="o" unicode="o" horiz-adv-x="608" 
d="M34 250c0 140 121 261 270 261c148 0 270 -121 270 -261c0 -143 -122 -262 -270 -262c-149 0 -270 119 -270 262zM182 37c36 -20 78 -31 122 -31s86 11 123 32v422c-37 21 -79 33 -123 33s-86 -12 -122 -32v-424z" />
    <glyph glyph-name="p" unicode="p" horiz-adv-x="648" 
d="M12 -185h86v666h-86v18h227v-103c8 24 20 44 37 62c32 33 77 53 130 53c130 0 204 -117 204 -258c0 -166 -100 -265 -207 -265c-53 0 -99 21 -132 53c-15 14 -25 31 -32 49v-275h86v-18h-313v18zM239 169c0 -90 69 -163 164 -163c18 0 36 3 53 9v471c-16 4 -32 7 -50 7
c-98 0 -164 -77 -167 -177v-147z" />
    <glyph glyph-name="q" unicode="q" horiz-adv-x="628" 
d="M242 -12c-130 0 -204 122 -204 265c0 149 82 258 216 258c61 0 101 -19 135 -37c25 -13 46 -24 69 -24s52 13 69 49h18v-684h86v-18h-313v18h86v285c-8 -24 -21 -46 -38 -63c-31 -31 -73 -49 -124 -49zM191 14c15 -5 32 -8 51 -8c98 0 159 78 162 179v260
c-8 4 -17 8 -25 13c-32 17 -70 35 -125 35c-23 0 -44 -4 -63 -10v-469z" />
    <glyph glyph-name="r" unicode="r" horiz-adv-x="472" 
d="M21 0v18h86v463h-86v18h227v-127c8 26 19 51 36 73c30 39 69 66 113 66c45 0 73 -29 73 -65c0 -35 -27 -64 -66 -64c-52 0 -72 54 -78 81c-47 -41 -78 -119 -78 -181v-264h86v-18h-313z" />
    <glyph glyph-name="s" unicode="s" horiz-adv-x="485" 
d="M48 0v170h20v-68c9 -13 76 -96 192 -96c54 0 105 19 137 55c-4 7 -13 20 -32 32l-205 131c-77 49 -108 72 -108 132c0 104 92 155 189 155c80 0 133 -35 159 -57v55h20v-156h-20v73c-9 10 -62 67 -160 67c-53 0 -105 -17 -136 -52c5 -9 15 -24 31 -34l215 -138
c66 -42 98 -67 98 -126c0 -99 -90 -155 -188 -155c-97 0 -163 54 -192 85v-73h-20z" />
    <glyph glyph-name="t" unicode="t" horiz-adv-x="386" 
d="M94 133v348h-93v18h93v87l141 102v-189h134v-18h-134v-470c59 1 108 54 108 119h20c0 -76 -58 -137 -131 -137c-84 0 -138 61 -138 140z" />
    <glyph glyph-name="u" unicode="u" horiz-adv-x="697" 
d="M88 195v286h-86v18h227v-489c11 -3 24 -4 38 -4c102 0 172 85 172 191v284h-86v18h227v-487c50 7 88 57 88 118h20c0 -76 -55 -137 -121 -137c-71 0 -119 50 -127 119c-10 -32 -27 -60 -52 -81c-32 -27 -73 -43 -121 -43c-120 0 -179 91 -179 207z" />
    <glyph glyph-name="v" unicode="v" horiz-adv-x="540" 
d="M271 -6l-234 487h-53v18h289v-18h-81l147 -316l130 316h-96v18h182v-18h-66l-200 -487h-18z" />
    <glyph glyph-name="w" unicode="w" horiz-adv-x="899" 
d="M271 -6l-234 487h-53v18h289v-18h-82l147 -318l97 237l-39 81h-63v18h289v-18h-72l147 -318l131 318h-96v18h182v-18h-66l-200 -487h-18l-184 383l-157 -383h-18z" />
    <glyph glyph-name="x" unicode="x" horiz-adv-x="575" 
d="M7 0v18h73l149 198l-167 265h-56v18h294v-18h-77l108 -172l128 172h-90v18h192v-18h-78l-142 -189l173 -274h62v-18h-290v18h68l-114 181l-137 -181h91v-18h-187z" />
    <glyph glyph-name="y" unicode="y" horiz-adv-x="544" 
d="M64 -61c37 0 64 -27 64 -60c0 -34 -29 -58 -48 -71c10 -3 21 -5 32 -5c62 0 104 55 141 144l24 58l-243 476h-50v18h289v-18h-84l157 -308l127 308h-96v18h182v-18h-66l-222 -540c-39 -95 -88 -156 -159 -156c-57 0 -111 39 -111 92c0 41 30 62 63 62z" />
    <glyph glyph-name="z" unicode="z" horiz-adv-x="535" 
d="M21 0v15l310 466h-257v-120h-20v138h443v-15l-312 -466h288v133h20v-151h-472z" />
    <glyph glyph-name="braceleft" unicode="{" horiz-adv-x="259" 
d="M106 9v181c0 64 -29 103 -87 112v16c58 9 87 48 87 112v166c0 98 49 172 155 172v-18c-92 0 -135 -66 -135 -154v-166c0 -61 -23 -102 -72 -120c50 -19 72 -60 72 -120v-181c0 -88 43 -154 135 -154v-18c-106 0 -155 74 -155 172z" />
    <glyph glyph-name="bar" unicode="|" horiz-adv-x="212" 
d="M96 -54v799h20v-799h-20z" />
    <glyph glyph-name="braceright" unicode="}" horiz-adv-x="259" 
d="M133 9v181c0 60 22 101 72 120c-49 18 -72 59 -72 120v166c0 88 -43 154 -135 154v18c106 0 155 -74 155 -172v-166c0 -64 29 -103 87 -112v-16c-58 -9 -87 -48 -87 -112v-181c0 -98 -49 -172 -155 -172v18c92 0 135 66 135 154z" />
    <glyph glyph-name="asciitilde" unicode="~" horiz-adv-x="648" 
d="M61 256c0 81 55 148 140 148c62 0 97 -35 133 -72c32 -34 65 -67 121 -67c73 0 120 59 120 130h20c0 -81 -55 -148 -140 -148c-64 0 -100 36 -135 73c-32 33 -65 66 -119 66c-73 0 -120 -59 -120 -130h-20z" />
    <glyph glyph-name="uni00A0" unicode="&#xa0;" horiz-adv-x="260" 
 />
    <glyph glyph-name="exclamdown" unicode="&#xa1;" horiz-adv-x="292" 
d="M66 -130c0 39 8 84 72 467h19c60 -368 67 -430 67 -464c0 -62 -18 -103 -79 -103s-79 41 -79 100zM147 395c-42 0 -75 33 -75 74s33 74 75 74s75 -33 75 -74s-33 -74 -75 -74z" />
    <glyph glyph-name="cent" unicode="&#xa2;" horiz-adv-x="536" 
d="M178 -63l31 130c-107 32 -177 134 -177 255c0 152 114 266 258 266c14 0 29 -1 44 -4l40 163l20 -4l-40 -163c70 -15 133 -55 133 -106c0 -36 -30 -62 -63 -62s-63 27 -63 62c0 32 26 56 45 71c-17 8 -36 14 -56 18l-116 -483c15 -4 32 -5 49 -5c149 0 194 135 194 135
l18 -6s-49 -147 -212 -147c-19 0 -37 2 -54 5l-31 -129zM180 99c11 -6 22 -11 34 -14l116 482c-13 2 -27 3 -40 3c-40 0 -77 -10 -110 -27v-444z" />
    <glyph glyph-name="sterling" unicode="&#xa3;" horiz-adv-x="643" 
d="M33 44c0 37 27 72 92 72c29 0 57 -7 84 -17c-23 55 -45 153 -61 246h-101v18h98c-12 73 -19 141 -19 180c0 163 119 220 225 220c117 0 217 -76 217 -144c0 -42 -37 -62 -63 -62c-32 0 -62 28 -62 60c0 36 36 65 56 80c-36 28 -90 48 -148 48c-36 0 -73 -7 -106 -24
c30 -167 47 -275 52 -358h167v-18h-167c1 -9 1 -18 1 -26c0 -103 -25 -178 -57 -232c22 -10 44 -22 65 -33c49 -27 103 -54 151 -54c95 0 128 92 128 172c0 16 -1 31 -4 46l20 4c3 -15 4 -32 4 -50c0 -88 -39 -190 -148 -190c-56 0 -108 27 -161 56c-22 11 -43 23 -65 33
l-6 -8c-40 -55 -87 -81 -121 -81s-71 21 -71 62zM53 44c0 -29 27 -44 51 -44c28 0 69 24 105 73l4 6c-28 11 -58 19 -88 19c-51 0 -72 -27 -72 -54z" />
    <glyph glyph-name="currency" unicode="&#xa4;" horiz-adv-x="494" 
d="M69 182l-14 12l51 51c-31 34 -49 78 -49 128c0 49 18 94 49 127l-51 52l14 12l51 -51c33 30 78 48 127 48s93 -18 127 -48l51 51l14 -12l-52 -52c30 -34 49 -78 49 -127s-19 -94 -49 -127l52 -52l-14 -12l-51 51c-34 -31 -78 -49 -127 -49c-50 0 -94 18 -128 48zM247 202
c93 0 169 76 169 171c0 94 -76 170 -169 170c-94 0 -170 -76 -170 -170c0 -95 76 -171 170 -171z" />
    <glyph glyph-name="yen" unicode="&#xa5;" horiz-adv-x="799" 
d="M247 0v18h90v260h-233v18h233v40l-47 73h-186v18h175l-195 304h-58v18h333v-18h-104l217 -343l192 343h-102v18h202v-18h-78l-170 -304h200v-18h-210l-23 -42v-71h233v-18h-233v-260h92v-18h-328z" />
    <glyph glyph-name="brokenbar" unicode="&#xa6;" horiz-adv-x="180" 
d="M80 446v299h20v-299h-20zM80 -54v299h20v-299h-20z" />
    <glyph glyph-name="section" unicode="&#xa7;" horiz-adv-x="557" 
d="M70 -9c0 35 30 61 63 61s63 -27 63 -62c0 -32 -24 -55 -44 -70c36 -16 83 -26 125 -26c79 0 152 35 179 103l-312 196c-71 45 -107 82 -107 149c0 65 34 112 85 143c-33 32 -48 64 -48 106c0 109 100 172 210 172c96 0 207 -47 207 -115c0 -35 -30 -61 -63 -61
s-63 27 -63 62c0 32 24 55 43 70c-36 16 -82 26 -124 26c-79 0 -152 -34 -179 -100l307 -194c66 -42 107 -79 107 -149c0 -65 -35 -112 -81 -142c37 -35 49 -67 49 -106c0 -113 -98 -178 -210 -178c-95 0 -207 47 -207 115zM69 402l317 -203l37 -27c27 17 49 40 63 69
l-306 199c-17 11 -32 22 -44 32c-29 -17 -53 -40 -67 -70z" />
    <glyph glyph-name="dieresis" unicode="&#xa8;" 
d="M53 794c-29 0 -55 25 -55 54s26 54 55 54s55 -25 55 -54s-26 -54 -55 -54zM248 794c-29 0 -55 25 -55 54s26 54 55 54s55 -25 55 -54s-26 -54 -55 -54z" />
    <glyph glyph-name="copyright" unicode="&#xa9;" horiz-adv-x="870" 
d="M35 369c0 218 179 392 400 392s400 -174 400 -392c0 -211 -179 -381 -400 -381s-400 170 -400 381zM55 369c0 -201 171 -363 380 -363s380 162 380 363c0 208 -171 374 -380 374s-380 -166 -380 -374zM316 190c32 -22 71 -35 117 -35c116 0 169 82 178 145l20 -2
c-9 -69 -68 -161 -198 -161c-138 0 -225 105 -225 236c0 133 102 232 229 232c75 0 130 -36 157 -59v51h20v-114h-20v36c-7 7 -64 68 -157 68c-45 0 -87 -14 -121 -39v-358z" />
    <glyph glyph-name="ordfeminine" unicode="&#xaa;" horiz-adv-x="474" 
d="M162 386c-75 0 -110 41 -110 98c0 63 45 97 107 97h27c42 0 72 17 75 45v114c-12 3 -24 5 -37 5c-30 0 -60 -7 -83 -18c12 -10 30 -28 30 -49c0 -27 -22 -44 -46 -44c-25 0 -46 18 -46 45c0 44 74 82 145 82c85 0 141 -53 141 -148v-206c33 7 57 40 57 81h18
c0 -54 -38 -98 -89 -98c-39 0 -71 26 -84 61c-2 -13 -12 -30 -25 -40c-19 -15 -46 -25 -80 -25zM161 402c63 0 97 38 100 85v3v103c-6 -9 -15 -15 -25 -19c-14 -6 -31 -9 -50 -9h-25v-163zM74 320v16h281v-16h-281z" />
    <glyph glyph-name="guillemotleft" unicode="&#xab;" horiz-adv-x="425" 
d="M227 4l-218 262v12l218 262l16 -12l-213 -256l213 -256zM164 266v12l218 262l16 -12l-213 -256l213 -256l-16 -12z" />
    <glyph glyph-name="logicalnot" unicode="&#xac;" horiz-adv-x="688" 
d="M73 493v18h559v-271h-20v253h-539z" />
    <glyph glyph-name="uni00AD" unicode="&#xad;" horiz-adv-x="420" 
d="M59 248v82h302v-82h-302z" />
    <glyph glyph-name="registered" unicode="&#xae;" horiz-adv-x="484" 
d="M242 360c-113 0 -206 88 -206 200s93 201 206 201s206 -89 206 -201s-93 -200 -206 -200zM242 374c105 0 190 82 190 186s-85 187 -190 187s-190 -83 -190 -187s85 -186 190 -186zM138 442v14h23v206h-23v14h117c47 0 79 -29 79 -64c0 -22 -13 -48 -39 -57
c24 -7 36 -32 36 -54v-48c12 5 20 18 20 33h16c0 -26 -18 -48 -47 -48c-28 0 -50 21 -50 49v60h-49v-91h17v-14h-100zM221 561h49v99s-5 2 -15 2h-34v-101z" />
    <glyph glyph-name="macron" unicode="&#xaf;" 
d="M45 839v18h210v-18h-210z" />
    <glyph glyph-name="degree" unicode="&#xb0;" horiz-adv-x="316" 
d="M158 513c-70 0 -126 56 -126 125s56 125 126 125s126 -56 126 -125s-56 -125 -126 -125zM158 531c58 0 106 48 106 107s-48 107 -106 107s-106 -48 -106 -107s48 -107 106 -107z" />
    <glyph glyph-name="plusminus" unicode="&#xb1;" horiz-adv-x="700" 
d="M335 124v270h-271v18h271v306h20v-306h279v-18h-279v-270h-20zM64 0v18h570v-18h-570z" />
    <glyph glyph-name="twosuperior" unicode="&#xb2;" horiz-adv-x="352" 
d="M45 442c0 95 74 126 137 149l10 3v159c-9 1 -18 2 -26 2c-30 0 -56 -8 -74 -20c12 -8 28 -21 28 -38s-16 -33 -35 -33c-18 0 -36 14 -36 34c0 33 52 71 117 71c58 0 127 -30 127 -96c0 -58 -50 -76 -105 -96c-36 -13 -73 -27 -98 -53h204c0 10 -1 19 -4 31l16 4
c3 -12 4 -23 4 -36c0 -42 -19 -81 -83 -81h-182z" />
    <glyph glyph-name="threesuperior" unicode="&#xb3;" horiz-adv-x="333" 
d="M160 437c-65 0 -119 40 -119 74c0 20 17 34 36 34c22 0 35 -18 35 -33c0 -18 -17 -31 -29 -39c19 -13 46 -22 77 -22c8 0 18 1 27 2v149h-40v14h40v137c-8 1 -17 2 -24 2c-29 0 -55 -8 -73 -20c11 -8 29 -22 29 -39c0 -15 -14 -32 -36 -32c-19 0 -35 14 -35 33
c0 35 52 72 115 72c51 0 123 -27 123 -89c0 -35 -25 -58 -64 -71c38 -14 68 -37 68 -76c0 -65 -74 -96 -130 -96z" />
    <glyph glyph-name="acute" unicode="&#xb4;" 
d="M121 790l-12 16l152 101l12 -16z" />
    <glyph glyph-name="paragraph" unicode="&#xb6;" horiz-adv-x="599" 
d="M137 -20c0 42 32 65 67 65c38 0 66 -29 66 -62c0 -30 -23 -58 -47 -76c24 -9 51 -13 75 -13c100 0 159 79 159 206v633h-106v-733h-20v312h-76c-124 0 -224 98 -224 219c0 122 100 220 224 220h313v-18h-91v-633c0 -139 -67 -224 -179 -224c-69 0 -161 34 -161 104z" />
    <glyph glyph-name="periodcentered" unicode="&#xb7;" horiz-adv-x="258" 
d="M54 385c0 41 33 74 75 74s75 -33 75 -74s-33 -74 -75 -74s-75 33 -75 74z" />
    <glyph glyph-name="cedilla" unicode="&#xb8;" 
d="M109 -94l35 91h18l-27 -73c44 -3 77 -21 77 -65c0 -48 -42 -74 -87 -74c-17 0 -35 3 -50 10l8 16c13 -5 27 -8 42 -8c35 0 67 20 67 56c0 34 -37 47 -83 47z" />
    <glyph glyph-name="onesuperior" unicode="&#xb9;" horiz-adv-x="295" 
d="M52 442v14h55v248c-16 -4 -33 -5 -53 -5v14c94 0 128 54 128 54h15v-311h55v-14h-200z" />
    <glyph glyph-name="ordmasculine" unicode="&#xba;" horiz-adv-x="469" 
d="M235 387c-106 0 -192 85 -192 186c0 103 86 188 192 188c105 0 191 -85 191 -188c0 -101 -86 -186 -191 -186zM151 424c25 -13 53 -21 84 -21c30 0 59 8 84 21v299c-25 14 -54 22 -84 22c-31 0 -59 -8 -84 -22v-299zM94 320v16h281v-16h-281z" />
    <glyph glyph-name="guillemotright" unicode="&#xbb;" horiz-adv-x="425" 
d="M182 16l213 256l-213 256l16 12l218 -262v-12l-218 -262zM27 16l213 256l-213 256l16 12l218 -262v-12l-218 -262z" />
    <glyph glyph-name="onequarter" unicode="&#xbc;" horiz-adv-x="386" 
d="M48 371v12h290v-12h-290zM190 14v287l5 7h53v-294h-58zM26 95v12l161 215h77v-213h48v-14h-48v-81h35v-14h-161v14h36v81h-148zM190 14h58v294h-53l-5 -7v-287zM45 109h129v171zM92 442v14h55v248c-16 -4 -33 -5 -53 -5v14c94 0 128 54 128 54h15v-311h55v-14h-200z" />
    <glyph glyph-name="onehalf" unicode="&#xbd;" horiz-adv-x="387" 
d="M48 371v12h290v-12h-290zM92 442v14h55v248c-16 -4 -33 -5 -53 -5v14c94 0 128 54 128 54h15v-311h55v-14h-200zM57 0c0 95 74 126 137 149l10 3v159c-9 1 -18 2 -26 2c-30 0 -56 -8 -74 -20c12 -8 28 -21 28 -38s-16 -33 -35 -33c-18 0 -36 14 -36 34c0 33 52 71 117 71
c58 0 127 -30 127 -96c0 -58 -50 -76 -105 -96c-36 -13 -73 -27 -98 -53h204c0 10 -1 19 -4 31l16 4c3 -12 4 -23 4 -36c0 -42 -19 -81 -83 -81h-182z" />
    <glyph glyph-name="threequarters" unicode="&#xbe;" horiz-adv-x="386" 
d="M48 371v12h290v-12h-290zM184 437c-65 0 -119 40 -119 74c0 20 17 34 36 34c22 0 35 -18 35 -33c0 -18 -17 -31 -29 -39c19 -13 46 -22 77 -22c8 0 18 1 27 2v149h-40v14h40v137c-8 1 -17 2 -24 2c-29 0 -55 -8 -73 -20c11 -8 29 -22 29 -39c0 -15 -14 -32 -36 -32
c-19 0 -35 14 -35 33c0 35 52 72 115 72c51 0 123 -27 123 -89c0 -35 -25 -58 -64 -71c38 -14 68 -37 68 -76c0 -65 -74 -96 -130 -96zM190 14v287l5 7h53v-294h-58zM26 95v12l161 215h77v-213h48v-14h-48v-81h35v-14h-161v14h36v81h-148zM190 14h58v294h-53l-5 -7v-287z
M45 109h129v171z" />
    <glyph glyph-name="questiondown" unicode="&#xbf;" horiz-adv-x="538" 
d="M48 -20c0 98 72 147 135 186c52 33 105 69 105 137v33h20v-33c0 -68 -41 -105 -90 -137v-368c24 -6 48 -10 72 -10c66 0 123 24 161 55c-22 17 -56 49 -56 82s30 61 62 61c26 0 63 -18 63 -60c0 -67 -99 -156 -230 -156c-120 0 -242 75 -242 210zM294 395
c-42 0 -75 33 -75 74s33 74 75 74s75 -33 75 -74s-33 -74 -75 -74z" />
    <glyph glyph-name="Agrave" unicode="&#xc0;" horiz-adv-x="730" 
d="M-20 0v18h69l303 734h18l320 -734h60v-18h-307v18h91l-84 196h-299l-81 -196h102v-18h-192zM158 232h285l-144 340zM389 800l-152 101l12 16l152 -101z" />
    <glyph glyph-name="Aacute" unicode="&#xc1;" horiz-adv-x="730" 
d="M-20 0v18h69l303 734h18l320 -734h60v-18h-307v18h91l-84 196h-299l-81 -196h102v-18h-192zM158 232h285l-144 340zM331 800l-12 16l152 101l12 -16z" />
    <glyph glyph-name="Acircumflex" unicode="&#xc2;" horiz-adv-x="730" 
d="M-20 0v18h69l303 734h18l320 -734h60v-18h-307v18h91l-84 196h-299l-81 -196h102v-18h-192zM158 232h285l-144 340zM246 801l-12 14l126 105l126 -105l-12 -14l-114 95z" />
    <glyph glyph-name="Atilde" unicode="&#xc3;" horiz-adv-x="730" 
d="M-20 0v18h69l303 734h18l320 -734h60v-18h-307v18h91l-84 196h-299l-81 -196h102v-18h-192zM158 232h285l-144 340zM210 823c0 51 32 92 81 92c36 0 55 -21 76 -44c17 -20 34 -39 63 -39c37 0 61 33 61 74h20c0 -51 -32 -92 -81 -92c-37 0 -57 22 -77 45
c-17 19 -34 38 -62 38c-37 0 -61 -33 -61 -74h-20z" />
    <glyph glyph-name="Adieresis" unicode="&#xc4;" horiz-adv-x="730" 
d="M-20 0v18h69l303 734h18l320 -734h60v-18h-307v18h91l-84 196h-299l-81 -196h102v-18h-192zM158 232h285l-144 340zM263 804c-29 0 -55 25 -55 54s26 54 55 54s55 -25 55 -54s-26 -54 -55 -54zM458 804c-29 0 -55 25 -55 54s26 54 55 54s55 -25 55 -54s-26 -54 -55 -54z
" />
    <glyph glyph-name="AE" unicode="&#xc6;" horiz-adv-x="1109" 
d="M29 18l442 713h-71v18h632v-186h-20v168h-349v-347h241v106h20v-226h-20v102h-241v-348h359v169h20v-187h-616v18h91v196h-342l-122 -196h99v-18h-192v18h69zM186 232h331v499h-22z" />
    <glyph glyph-name="Ccedilla" unicode="&#xc7;" horiz-adv-x="811" 
d="M225 68c55 -39 125 -62 206 -62c201 0 294 143 309 252l20 -2c-16 -114 -112 -263 -320 -267l-24 -65c44 -3 77 -21 77 -65c0 -48 -42 -74 -87 -74c-17 0 -35 3 -50 10l8 16c13 -5 27 -8 42 -8c35 0 67 20 67 56c0 34 -37 47 -83 47l31 83c-224 5 -365 178 -365 391
c0 217 170 381 381 381c139 0 236 -73 274 -108v104h20v-194h-20v62c-11 13 -111 118 -274 118c-79 0 -153 -25 -212 -68v-607z" />
    <glyph glyph-name="Egrave" unicode="&#xc8;" horiz-adv-x="735" 
d="M52 0v18h91v713h-91v18h606v-186h-20v168h-349v-347h241v106h20v-226h-20v102h-241v-348h359v169h20v-187h-616zM397 800l-152 101l12 16l152 -101z" />
    <glyph glyph-name="Eacute" unicode="&#xc9;" horiz-adv-x="735" 
d="M52 0v18h91v713h-91v18h606v-186h-20v168h-349v-347h241v106h20v-226h-20v102h-241v-348h359v169h20v-187h-616zM339 800l-12 16l152 101l12 -16z" />
    <glyph glyph-name="Ecircumflex" unicode="&#xca;" horiz-adv-x="735" 
d="M52 0v18h91v713h-91v18h606v-186h-20v168h-349v-347h241v106h20v-226h-20v102h-241v-348h359v169h20v-187h-616zM254 801l-12 14l126 105l126 -105l-12 -14l-114 95z" />
    <glyph glyph-name="Edieresis" unicode="&#xcb;" horiz-adv-x="735" 
d="M52 0v18h91v713h-91v18h606v-186h-20v168h-349v-347h241v106h20v-226h-20v102h-241v-348h359v169h20v-187h-616zM271 804c-29 0 -55 25 -55 54s26 54 55 54s55 -25 55 -54s-26 -54 -55 -54zM466 804c-29 0 -55 25 -55 54s26 54 55 54s55 -25 55 -54s-26 -54 -55 -54z" />
    <glyph glyph-name="Igrave" unicode="&#xcc;" horiz-adv-x="432" 
d="M52 0v18h91v713h-91v18h328v-18h-91v-713h91v-18h-328zM245 800l-152 101l12 16l152 -101z" />
    <glyph glyph-name="Iacute" unicode="&#xcd;" horiz-adv-x="432" 
d="M52 0v18h91v713h-91v18h328v-18h-91v-713h91v-18h-328zM187 800l-12 16l152 101l12 -16z" />
    <glyph glyph-name="Icircumflex" unicode="&#xce;" horiz-adv-x="432" 
d="M52 0v18h91v713h-91v18h328v-18h-91v-713h91v-18h-328zM102 801l-12 14l126 105l126 -105l-12 -14l-114 95z" />
    <glyph glyph-name="Idieresis" unicode="&#xcf;" horiz-adv-x="432" 
d="M52 0v18h91v713h-91v18h328v-18h-91v-713h91v-18h-328zM119 804c-29 0 -55 25 -55 54s26 54 55 54s55 -25 55 -54s-26 -54 -55 -54zM314 804c-29 0 -55 25 -55 54s26 54 55 54s55 -25 55 -54s-26 -54 -55 -54z" />
    <glyph glyph-name="Eth" unicode="&#xd0;" horiz-adv-x="861" 
d="M52 0v18h91v353h-91v18h91v342h-91v18h361c230 0 392 -168 392 -371c0 -210 -162 -378 -392 -378h-361zM289 18h124c87 0 164 25 225 69v575c-61 43 -138 69 -225 69h-124v-342h186v-18h-186v-353z" />
    <glyph glyph-name="Ntilde" unicode="&#xd1;" horiz-adv-x="880" 
d="M52 0v18h91v713h-91v18h211l461 -529v511h-91v18h202v-18h-91v-731h-20l-561 637v-619h91v-18h-202zM278 823c0 51 32 92 81 92c36 0 55 -21 76 -44c17 -20 34 -39 63 -39c37 0 61 33 61 74h20c0 -51 -32 -92 -81 -92c-37 0 -57 22 -77 45c-17 19 -34 38 -62 38
c-37 0 -61 -33 -61 -74h-20z" />
    <glyph glyph-name="Ograve" unicode="&#xd2;" horiz-adv-x="908" 
d="M54 372c0 215 179 389 400 389s400 -174 400 -389c0 -214 -179 -384 -400 -384s-400 170 -400 384zM224 80c64 -47 143 -74 230 -74c86 0 166 27 230 74v587c-64 47 -144 76 -230 76c-87 0 -166 -29 -230 -76v-587zM477 800l-152 101l12 16l152 -101z" />
    <glyph glyph-name="Oacute" unicode="&#xd3;" horiz-adv-x="908" 
d="M54 372c0 215 179 389 400 389s400 -174 400 -389c0 -214 -179 -384 -400 -384s-400 170 -400 384zM224 80c64 -47 143 -74 230 -74c86 0 166 27 230 74v587c-64 47 -144 76 -230 76c-87 0 -166 -29 -230 -76v-587zM419 800l-12 16l152 101l12 -16z" />
    <glyph glyph-name="Ocircumflex" unicode="&#xd4;" horiz-adv-x="908" 
d="M54 372c0 215 179 389 400 389s400 -174 400 -389c0 -214 -179 -384 -400 -384s-400 170 -400 384zM224 80c64 -47 143 -74 230 -74c86 0 166 27 230 74v587c-64 47 -144 76 -230 76c-87 0 -166 -29 -230 -76v-587zM334 801l-12 14l126 105l126 -105l-12 -14l-114 95z
" />
    <glyph glyph-name="Otilde" unicode="&#xd5;" horiz-adv-x="908" 
d="M54 372c0 215 179 389 400 389s400 -174 400 -389c0 -214 -179 -384 -400 -384s-400 170 -400 384zM224 80c64 -47 143 -74 230 -74c86 0 166 27 230 74v587c-64 47 -144 76 -230 76c-87 0 -166 -29 -230 -76v-587zM298 823c0 51 32 92 81 92c36 0 55 -21 76 -44
c17 -20 34 -39 63 -39c37 0 61 33 61 74h20c0 -51 -32 -92 -81 -92c-37 0 -57 22 -77 45c-17 19 -34 38 -62 38c-37 0 -61 -33 -61 -74h-20z" />
    <glyph glyph-name="Odieresis" unicode="&#xd6;" horiz-adv-x="908" 
d="M54 372c0 215 179 389 400 389s400 -174 400 -389c0 -214 -179 -384 -400 -384s-400 170 -400 384zM224 80c64 -47 143 -74 230 -74c86 0 166 27 230 74v587c-64 47 -144 76 -230 76c-87 0 -166 -29 -230 -76v-587zM351 804c-29 0 -55 25 -55 54s26 54 55 54
s55 -25 55 -54s-26 -54 -55 -54zM546 804c-29 0 -55 25 -55 54s26 54 55 54s55 -25 55 -54s-26 -54 -55 -54z" />
    <glyph glyph-name="multiply" unicode="&#xd7;" horiz-adv-x="700" 
d="M95 98l242 242l-242 243l14 12l241 -242l241 242l14 -12l-242 -243l242 -242l-14 -12l-241 241l-241 -241z" />
    <glyph glyph-name="Oslash" unicode="&#xd8;" horiz-adv-x="908" 
d="M170 -45l63 97c-108 69 -179 186 -179 320c0 215 179 389 400 389c75 0 145 -20 205 -55l66 102l16 -10l-66 -102c108 -69 179 -189 179 -324c0 -212 -179 -384 -400 -384c-75 0 -145 19 -205 54l-63 -97zM224 81c6 -5 12 -10 19 -14l405 623c-57 34 -123 53 -194 53
c-87 0 -166 -29 -230 -76v-586zM259 58c57 -33 124 -52 195 -52c86 0 166 28 230 75v586l-20 13z" />
    <glyph glyph-name="Ugrave" unicode="&#xd9;" horiz-adv-x="850" 
d="M263 47c48 -28 107 -41 170 -41c153 0 280 89 280 282v443h-91v18h202v-18h-91v-443c0 -205 -137 -300 -300 -300c-172 0 -316 95 -316 300v443h-91v18h328v-18h-91v-684zM464 800l-152 101l12 16l152 -101z" />
    <glyph glyph-name="Uacute" unicode="&#xda;" horiz-adv-x="850" 
d="M263 47c48 -28 107 -41 170 -41c153 0 280 89 280 282v443h-91v18h202v-18h-91v-443c0 -205 -137 -300 -300 -300c-172 0 -316 95 -316 300v443h-91v18h328v-18h-91v-684zM406 800l-12 16l152 101l12 -16z" />
    <glyph glyph-name="Ucircumflex" unicode="&#xdb;" horiz-adv-x="850" 
d="M263 47c48 -28 107 -41 170 -41c153 0 280 89 280 282v443h-91v18h202v-18h-91v-443c0 -205 -137 -300 -300 -300c-172 0 -316 95 -316 300v443h-91v18h328v-18h-91v-684zM321 801l-12 14l126 105l126 -105l-12 -14l-114 95z" />
    <glyph glyph-name="Udieresis" unicode="&#xdc;" horiz-adv-x="850" 
d="M263 47c48 -28 107 -41 170 -41c153 0 280 89 280 282v443h-91v18h202v-18h-91v-443c0 -205 -137 -300 -300 -300c-172 0 -316 95 -316 300v443h-91v18h328v-18h-91v-684zM338 804c-29 0 -55 25 -55 54s26 54 55 54s55 -25 55 -54s-26 -54 -55 -54zM533 804
c-29 0 -55 25 -55 54s26 54 55 54s55 -25 55 -54s-26 -54 -55 -54z" />
    <glyph glyph-name="Yacute" unicode="&#xdd;" horiz-adv-x="730" 
d="M211 0v18h90v318l-272 395h-58v18h333v-18h-104l236 -344l210 344h-100v18h202v-18h-78l-223 -366v-347h92v-18h-328zM346 800l-12 16l152 101l12 -16z" />
    <glyph glyph-name="Thorn" unicode="&#xde;" horiz-adv-x="743" 
d="M52 0v18h91v713h-91v18h328v-18h-91v-129h176c148 0 246 -103 246 -225s-98 -220 -246 -220h-176v-139h91v-18h-328zM289 175h176c31 0 60 5 86 13v382c-26 9 -55 14 -86 14h-176v-409z" />
    <glyph glyph-name="germandbls" unicode="&#xdf;" horiz-adv-x="593" 
d="M13 0v18h86v541c0 134 111 202 222 202s222 -68 222 -202c0 -90 -49 -145 -116 -176c75 -31 126 -92 126 -181c0 -109 -75 -207 -211 -207c-11 0 -21 1 -31 2l2 18c10 -2 20 -2 29 -2c20 0 39 2 56 7v353h-78v18h78v339c-25 9 -51 13 -77 13c-28 0 -56 -5 -81 -14v-729
h-227z" />
    <glyph glyph-name="agrave" unicode="&#xe0;" horiz-adv-x="563" 
d="M28 125c0 87 62 134 149 134h38c62 0 108 27 110 70v157c-17 5 -36 7 -55 7c-44 0 -88 -10 -122 -27c15 -12 44 -40 44 -71c0 -36 -31 -60 -63 -60c-34 0 -63 26 -63 62c0 62 104 114 204 114c120 0 197 -75 197 -207v-292c51 9 87 58 87 118h20
c0 -76 -52 -137 -124 -137c-57 0 -101 36 -118 90c-4 -17 -12 -32 -24 -46c-27 -30 -69 -49 -127 -49c-104 0 -153 60 -153 137zM178 6h2c97 0 145 61 145 134v143c-9 -12 -21 -22 -37 -29c-20 -9 -45 -13 -73 -13h-37v-235zM301 574l-152 101l12 16l152 -101z" />
    <glyph glyph-name="aacute" unicode="&#xe1;" horiz-adv-x="563" 
d="M28 125c0 87 62 134 149 134h38c62 0 108 27 110 70v157c-17 5 -36 7 -55 7c-44 0 -88 -10 -122 -27c15 -12 44 -40 44 -71c0 -36 -31 -60 -63 -60c-34 0 -63 26 -63 62c0 62 104 114 204 114c120 0 197 -75 197 -207v-292c51 9 87 58 87 118h20
c0 -76 -52 -137 -124 -137c-57 0 -101 36 -118 90c-4 -17 -12 -32 -24 -46c-27 -30 -69 -49 -127 -49c-104 0 -153 60 -153 137zM178 6h2c97 0 145 61 145 134v143c-9 -12 -21 -22 -37 -29c-20 -9 -45 -13 -73 -13h-37v-235zM243 574l-12 16l152 101l12 -16z" />
    <glyph glyph-name="acircumflex" unicode="&#xe2;" horiz-adv-x="563" 
d="M28 125c0 87 62 134 149 134h38c62 0 108 27 110 70v157c-17 5 -36 7 -55 7c-44 0 -88 -10 -122 -27c15 -12 44 -40 44 -71c0 -36 -31 -60 -63 -60c-34 0 -63 26 -63 62c0 62 104 114 204 114c120 0 197 -75 197 -207v-292c51 9 87 58 87 118h20
c0 -76 -52 -137 -124 -137c-57 0 -101 36 -118 90c-4 -17 -12 -32 -24 -46c-27 -30 -69 -49 -127 -49c-104 0 -153 60 -153 137zM178 6h2c97 0 145 61 145 134v143c-9 -12 -21 -22 -37 -29c-20 -9 -45 -13 -73 -13h-37v-235zM158 575l-12 14l126 105l126 -105l-12 -14
l-114 95z" />
    <glyph glyph-name="atilde" unicode="&#xe3;" horiz-adv-x="563" 
d="M28 125c0 87 62 134 149 134h38c62 0 108 27 110 70v157c-17 5 -36 7 -55 7c-44 0 -88 -10 -122 -27c15 -12 44 -40 44 -71c0 -36 -31 -60 -63 -60c-34 0 -63 26 -63 62c0 62 104 114 204 114c120 0 197 -75 197 -207v-292c51 9 87 58 87 118h20
c0 -76 -52 -137 -124 -137c-57 0 -101 36 -118 90c-4 -17 -12 -32 -24 -46c-27 -30 -69 -49 -127 -49c-104 0 -153 60 -153 137zM178 6h2c97 0 145 61 145 134v143c-9 -12 -21 -22 -37 -29c-20 -9 -45 -13 -73 -13h-37v-235zM122 597c0 51 32 92 81 92c36 0 55 -21 76 -44
c17 -20 34 -39 63 -39c37 0 61 33 61 74h20c0 -51 -32 -92 -81 -92c-37 0 -57 22 -77 45c-17 19 -34 38 -62 38c-37 0 -61 -33 -61 -74h-20z" />
    <glyph glyph-name="adieresis" unicode="&#xe4;" horiz-adv-x="563" 
d="M28 125c0 87 62 134 149 134h38c62 0 108 27 110 70v157c-17 5 -36 7 -55 7c-44 0 -88 -10 -122 -27c15 -12 44 -40 44 -71c0 -36 -31 -60 -63 -60c-34 0 -63 26 -63 62c0 62 104 114 204 114c120 0 197 -75 197 -207v-292c51 9 87 58 87 118h20
c0 -76 -52 -137 -124 -137c-57 0 -101 36 -118 90c-4 -17 -12 -32 -24 -46c-27 -30 -69 -49 -127 -49c-104 0 -153 60 -153 137zM178 6h2c97 0 145 61 145 134v143c-9 -12 -21 -22 -37 -29c-20 -9 -45 -13 -73 -13h-37v-235zM175 578c-29 0 -55 25 -55 54s26 54 55 54
s55 -25 55 -54s-26 -54 -55 -54zM370 578c-29 0 -55 25 -55 54s26 54 55 54s55 -25 55 -54s-26 -54 -55 -54z" />
    <glyph glyph-name="aring" unicode="&#xe5;" horiz-adv-x="563" 
d="M28 125c0 87 62 134 149 134h38c62 0 108 27 110 70v157c-17 5 -36 7 -55 7c-44 0 -88 -10 -122 -27c15 -12 44 -40 44 -71c0 -36 -31 -60 -63 -60c-34 0 -63 26 -63 62c0 62 104 114 204 114c120 0 197 -75 197 -207v-292c51 9 87 58 87 118h20
c0 -76 -52 -137 -124 -137c-57 0 -101 36 -118 90c-4 -17 -12 -32 -24 -46c-27 -30 -69 -49 -127 -49c-104 0 -153 60 -153 137zM178 6h2c97 0 145 61 145 134v143c-9 -12 -21 -22 -37 -29c-20 -9 -45 -13 -73 -13h-37v-235zM272 517c-50 0 -92 41 -92 91s42 91 92 91
s92 -41 92 -91s-42 -91 -92 -91zM272 535c40 0 72 33 72 73s-32 73 -72 73s-72 -33 -72 -73s32 -73 72 -73z" />
    <glyph glyph-name="ae" unicode="&#xe6;" horiz-adv-x="816" 
d="M28 129c0 94 69 148 177 148h120v209c-18 4 -36 7 -56 7c-41 0 -83 -10 -117 -26c15 -12 45 -39 45 -73s-31 -59 -63 -59c-34 0 -63 27 -63 61c0 64 104 115 199 115c59 0 109 -19 143 -55c19 16 70 55 148 55c134 0 221 -122 227 -254h-321v-229c31 -14 65 -22 100 -22
c141 0 189 135 189 135l18 -6s-53 -147 -207 -147c-78 0 -155 38 -200 98l-3 3c-17 -34 -64 -101 -178 -101c-106 0 -158 59 -158 141zM467 275h162v205c-21 8 -45 13 -69 13c-69 0 -117 -36 -134 -51c9 -11 17 -25 23 -39c12 -28 18 -59 18 -99v-29zM178 6h8
c117 0 156 82 165 104c-19 34 -26 69 -26 104v45h-120c-10 0 -19 -1 -27 -2v-251z" />
    <glyph glyph-name="ccedilla" unicode="&#xe7;" horiz-adv-x="524" 
d="M183 30c30 -16 65 -24 103 -24c149 0 194 135 194 135l18 -6s-48 -142 -204 -146l-24 -65c44 -3 77 -21 77 -65c0 -48 -42 -74 -87 -74c-17 0 -35 3 -50 10l8 16c13 -5 27 -8 42 -8c35 0 67 20 67 56c0 34 -37 47 -83 47l31 82c-141 6 -240 122 -240 262
c0 147 114 261 258 261c91 0 197 -47 197 -114c0 -36 -30 -62 -63 -62s-63 27 -63 62c0 33 26 56 45 70c-34 16 -77 26 -116 26c-40 0 -77 -10 -110 -27v-436z" />
    <glyph glyph-name="egrave" unicode="&#xe8;" horiz-adv-x="544" 
d="M184 30c30 -15 65 -24 103 -24c148 0 196 135 196 135l18 -6s-52 -147 -214 -147c-147 0 -252 120 -252 262c0 144 110 261 248 261c132 0 224 -109 233 -244h-332v-237zM184 285h172v195c-23 8 -47 13 -73 13c-36 0 -69 -9 -99 -24v-184zM310 574l-152 101l12 16
l152 -101z" />
    <glyph glyph-name="eacute" unicode="&#xe9;" horiz-adv-x="544" 
d="M184 30c30 -15 65 -24 103 -24c148 0 196 135 196 135l18 -6s-52 -147 -214 -147c-147 0 -252 120 -252 262c0 144 110 261 248 261c132 0 224 -109 233 -244h-332v-237zM184 285h172v195c-23 8 -47 13 -73 13c-36 0 -69 -9 -99 -24v-184zM252 574l-12 16l152 101l12 -16
z" />
    <glyph glyph-name="ecircumflex" unicode="&#xea;" horiz-adv-x="544" 
d="M184 30c30 -15 65 -24 103 -24c148 0 196 135 196 135l18 -6s-52 -147 -214 -147c-147 0 -252 120 -252 262c0 144 110 261 248 261c132 0 224 -109 233 -244h-332v-237zM184 285h172v195c-23 8 -47 13 -73 13c-36 0 -69 -9 -99 -24v-184zM167 575l-12 14l126 105
l126 -105l-12 -14l-114 95z" />
    <glyph glyph-name="edieresis" unicode="&#xeb;" horiz-adv-x="544" 
d="M184 30c30 -15 65 -24 103 -24c148 0 196 135 196 135l18 -6s-52 -147 -214 -147c-147 0 -252 120 -252 262c0 144 110 261 248 261c132 0 224 -109 233 -244h-332v-237zM184 285h172v195c-23 8 -47 13 -73 13c-36 0 -69 -9 -99 -24v-184zM184 578c-29 0 -55 25 -55 54
s26 54 55 54s55 -25 55 -54s-26 -54 -55 -54zM379 578c-29 0 -55 25 -55 54s26 54 55 54s55 -25 55 -54s-26 -54 -55 -54z" />
    <glyph glyph-name="igrave" unicode="&#xec;" horiz-adv-x="346" 
d="M21 0v18h86v463h-86v18h227v-481h86v-18h-313zM206 574l-152 101l12 16l152 -101z" />
    <glyph glyph-name="iacute" unicode="&#xed;" horiz-adv-x="346" 
d="M21 0v18h86v463h-86v18h227v-481h86v-18h-313zM148 574l-12 16l152 101l12 -16z" />
    <glyph glyph-name="icircumflex" unicode="&#xee;" horiz-adv-x="346" 
d="M21 0v18h86v463h-86v18h227v-481h86v-18h-313zM63 575l-12 14l126 105l126 -105l-12 -14l-114 95z" />
    <glyph glyph-name="idieresis" unicode="&#xef;" horiz-adv-x="346" 
d="M21 0v18h86v463h-86v18h227v-481h86v-18h-313zM80 578c-29 0 -55 25 -55 54s26 54 55 54s55 -25 55 -54s-26 -54 -55 -54zM275 578c-29 0 -55 25 -55 54s26 54 55 54s55 -25 55 -54s-26 -54 -55 -54z" />
    <glyph glyph-name="eth" unicode="&#xf0;" horiz-adv-x="606" 
d="M38 230c0 140 117 228 225 228c58 0 114 -28 153 -64v196c-32 31 -67 58 -103 81l-168 -72l-8 16l157 67c-53 31 -108 51 -155 61l4 18c52 -11 113 -35 172 -70l162 69l8 -16l-151 -65c120 -78 227 -204 227 -365c0 -185 -135 -326 -287 -326c-137 0 -236 111 -236 242z
M183 26c27 -13 58 -20 91 -20c51 0 100 17 142 48v314c-36 39 -93 72 -153 72c-27 0 -54 -7 -80 -18v-396z" />
    <glyph glyph-name="ntilde" unicode="&#xf1;" horiz-adv-x="703" 
d="M21 0v18h86v463h-86v18h227v-106c9 26 22 48 41 66c35 34 84 52 135 52c61 0 110 -25 140 -69c24 -35 35 -83 35 -135v-295c50 7 88 57 88 118h20c0 -76 -55 -137 -121 -137c-78 0 -128 61 -128 140v356c-11 2 -23 4 -35 4c-103 0 -172 -80 -175 -179v-296h86v-18h-313z
M215 597c0 51 32 92 81 92c36 0 55 -21 76 -44c17 -20 34 -39 63 -39c37 0 61 33 61 74h20c0 -51 -32 -92 -81 -92c-37 0 -57 22 -77 45c-17 19 -34 38 -62 38c-37 0 -61 -33 -61 -74h-20z" />
    <glyph glyph-name="ograve" unicode="&#xf2;" horiz-adv-x="608" 
d="M34 250c0 140 121 261 270 261c148 0 270 -121 270 -261c0 -143 -122 -262 -270 -262c-149 0 -270 119 -270 262zM182 37c36 -20 78 -31 122 -31s86 11 123 32v422c-37 21 -79 33 -123 33s-86 -12 -122 -32v-424zM333 574l-152 101l12 16l152 -101z" />
    <glyph glyph-name="oacute" unicode="&#xf3;" horiz-adv-x="608" 
d="M34 250c0 140 121 261 270 261c148 0 270 -121 270 -261c0 -143 -122 -262 -270 -262c-149 0 -270 119 -270 262zM182 37c36 -20 78 -31 122 -31s86 11 123 32v422c-37 21 -79 33 -123 33s-86 -12 -122 -32v-424zM275 574l-12 16l152 101l12 -16z" />
    <glyph glyph-name="ocircumflex" unicode="&#xf4;" horiz-adv-x="608" 
d="M34 250c0 140 121 261 270 261c148 0 270 -121 270 -261c0 -143 -122 -262 -270 -262c-149 0 -270 119 -270 262zM182 37c36 -20 78 -31 122 -31s86 11 123 32v422c-37 21 -79 33 -123 33s-86 -12 -122 -32v-424zM190 575l-12 14l126 105l126 -105l-12 -14l-114 95z" />
    <glyph glyph-name="otilde" unicode="&#xf5;" horiz-adv-x="608" 
d="M34 250c0 140 121 261 270 261c148 0 270 -121 270 -261c0 -143 -122 -262 -270 -262c-149 0 -270 119 -270 262zM182 37c36 -20 78 -31 122 -31s86 11 123 32v422c-37 21 -79 33 -123 33s-86 -12 -122 -32v-424zM154 597c0 51 32 92 81 92c36 0 55 -21 76 -44
c17 -20 34 -39 63 -39c37 0 61 33 61 74h20c0 -51 -32 -92 -81 -92c-37 0 -57 22 -77 45c-17 19 -34 38 -62 38c-37 0 -61 -33 -61 -74h-20z" />
    <glyph glyph-name="odieresis" unicode="&#xf6;" horiz-adv-x="608" 
d="M34 250c0 140 121 261 270 261c148 0 270 -121 270 -261c0 -143 -122 -262 -270 -262c-149 0 -270 119 -270 262zM182 37c36 -20 78 -31 122 -31s86 11 123 32v422c-37 21 -79 33 -123 33s-86 -12 -122 -32v-424zM207 578c-29 0 -55 25 -55 54s26 54 55 54s55 -25 55 -54
s-26 -54 -55 -54zM402 578c-29 0 -55 25 -55 54s26 54 55 54s55 -25 55 -54s-26 -54 -55 -54z" />
    <glyph glyph-name="divide" unicode="&#xf7;" horiz-adv-x="700" 
d="M275 62c0 41 33 74 75 74s75 -33 75 -74s-33 -74 -75 -74s-75 33 -75 74zM350 363c-42 0 -75 33 -75 74s33 74 75 74s75 -33 75 -74s-33 -74 -75 -74z" />
    <glyph glyph-name="oslash" unicode="&#xf8;" horiz-adv-x="608" 
d="M168 -46l25 57c-94 42 -159 133 -159 236c0 143 121 264 270 264c33 0 66 -6 95 -18l23 53l18 -8l-23 -53c92 -42 157 -134 157 -238c0 -140 -122 -259 -270 -259c-33 0 -64 6 -93 16l-25 -58zM182 37l18 -9l192 449c-27 10 -57 16 -88 16c-44 0 -86 -12 -122 -32v-424z
M218 21c27 -10 56 -15 86 -15c44 0 86 11 123 32v422l-17 9z" />
    <glyph glyph-name="ugrave" unicode="&#xf9;" horiz-adv-x="697" 
d="M88 195v286h-86v18h227v-489c11 -3 24 -4 38 -4c102 0 172 85 172 191v284h-86v18h227v-487c50 7 88 57 88 118h20c0 -76 -55 -137 -121 -137c-71 0 -119 50 -127 119c-10 -32 -27 -60 -52 -81c-32 -27 -73 -43 -121 -43c-120 0 -179 91 -179 207zM356 574l-152 101
l12 16l152 -101z" />
    <glyph glyph-name="uacute" unicode="&#xfa;" horiz-adv-x="697" 
d="M88 195v286h-86v18h227v-489c11 -3 24 -4 38 -4c102 0 172 85 172 191v284h-86v18h227v-487c50 7 88 57 88 118h20c0 -76 -55 -137 -121 -137c-71 0 -119 50 -127 119c-10 -32 -27 -60 -52 -81c-32 -27 -73 -43 -121 -43c-120 0 -179 91 -179 207zM298 574l-12 16
l152 101l12 -16z" />
    <glyph glyph-name="ucircumflex" unicode="&#xfb;" horiz-adv-x="697" 
d="M88 195v286h-86v18h227v-489c11 -3 24 -4 38 -4c102 0 172 85 172 191v284h-86v18h227v-487c50 7 88 57 88 118h20c0 -76 -55 -137 -121 -137c-71 0 -119 50 -127 119c-10 -32 -27 -60 -52 -81c-32 -27 -73 -43 -121 -43c-120 0 -179 91 -179 207zM213 575l-12 14
l126 105l126 -105l-12 -14l-114 95z" />
    <glyph glyph-name="udieresis" unicode="&#xfc;" horiz-adv-x="697" 
d="M88 195v286h-86v18h227v-489c11 -3 24 -4 38 -4c102 0 172 85 172 191v284h-86v18h227v-487c50 7 88 57 88 118h20c0 -76 -55 -137 -121 -137c-71 0 -119 50 -127 119c-10 -32 -27 -60 -52 -81c-32 -27 -73 -43 -121 -43c-120 0 -179 91 -179 207zM230 578
c-29 0 -55 25 -55 54s26 54 55 54s55 -25 55 -54s-26 -54 -55 -54zM425 578c-29 0 -55 25 -55 54s26 54 55 54s55 -25 55 -54s-26 -54 -55 -54z" />
    <glyph glyph-name="yacute" unicode="&#xfd;" horiz-adv-x="544" 
d="M64 -61c37 0 64 -27 64 -60c0 -34 -29 -58 -48 -71c10 -3 21 -5 32 -5c62 0 104 55 141 144l24 58l-243 476h-50v18h289v-18h-84l157 -308l127 308h-96v18h182v-18h-66l-222 -540c-39 -95 -88 -156 -159 -156c-57 0 -111 39 -111 92c0 41 30 62 63 62zM261 574l-12 16
l152 101l12 -16z" />
    <glyph glyph-name="thorn" unicode="&#xfe;" horiz-adv-x="628" 
d="M-8 -185h86v916h-86v18h227v-353c9 26 23 49 43 68c32 29 74 47 124 47c130 0 204 -117 204 -258c0 -166 -100 -265 -207 -265c-54 0 -100 20 -133 54c-14 14 -24 30 -31 48v-275h86v-18h-313v18zM219 170c0 -91 69 -164 164 -164c18 0 36 3 53 9v471c-16 4 -32 7 -50 7
c-98 0 -164 -77 -167 -176v-147z" />
    <glyph glyph-name="ydieresis" unicode="&#xff;" horiz-adv-x="544" 
d="M64 -61c37 0 64 -27 64 -60c0 -34 -29 -58 -48 -71c10 -3 21 -5 32 -5c62 0 104 55 141 144l24 58l-243 476h-50v18h289v-18h-84l157 -308l127 308h-96v18h182v-18h-66l-222 -540c-39 -95 -88 -156 -159 -156c-57 0 -111 39 -111 92c0 41 30 62 63 62zM193 578
c-29 0 -55 25 -55 54s26 54 55 54s55 -25 55 -54s-26 -54 -55 -54zM388 578c-29 0 -55 25 -55 54s26 54 55 54s55 -25 55 -54s-26 -54 -55 -54z" />
    <glyph glyph-name="dotlessi" unicode="&#x131;" horiz-adv-x="346" 
d="M21 0v18h86v463h-86v18h227v-481h86v-18h-313z" />
    <glyph glyph-name="Lslash" unicode="&#x141;" horiz-adv-x="681" 
d="M52 0v18h91v304l-85 -51l-10 16l95 57v387h-91v18h328v-18h-91v-299l229 140l10 -16l-239 -146v-392h344v189h20v-207h-601z" />
    <glyph glyph-name="lslash" unicode="&#x142;" horiz-adv-x="337" 
d="M12 0v18h86v350l-85 -51l-10 16l95 57v341h-86v18h227v-274l84 51l10 -16l-94 -57v-435h86v-18h-313z" />
    <glyph glyph-name="OE" unicode="&#x152;" horiz-adv-x="1103" 
d="M56 371c0 208 170 378 381 378h589v-186h-20v168h-349v-347h241v106h20v-226h-20v102h-241v-348h359v169h20v-187h-599c-211 0 -381 168 -381 371zM226 85c59 -42 132 -67 211 -67h74v713h-74c-79 0 -152 -25 -211 -68v-578z" />
    <glyph glyph-name="oe" unicode="&#x153;" horiz-adv-x="900" 
d="M34 247c0 143 121 264 270 264c65 0 127 -24 174 -62c43 39 99 62 161 62c132 0 224 -109 233 -244h-332v-237c30 -16 65 -24 103 -24c148 0 196 135 196 135l18 -6s-52 -147 -214 -147c-66 0 -123 23 -166 61c-46 -38 -107 -61 -173 -61c-149 0 -270 119 -270 259z
M182 37c36 -20 78 -31 122 -31c60 0 115 21 159 57c-45 47 -72 113 -72 184c0 74 27 140 73 188c-44 36 -100 58 -160 58c-44 0 -86 -12 -122 -32v-424zM540 285h172v195c-23 8 -47 13 -73 13c-36 0 -69 -9 -99 -24v-184z" />
    <glyph glyph-name="Scaron" unicode="&#x160;" horiz-adv-x="653" 
d="M70 0v219h20v-88c9 -12 103 -125 256 -125c91 0 177 41 213 117c-4 10 -16 33 -50 55l-314 199c-88 56 -119 96 -119 169c0 143 118 215 251 215c111 0 183 -49 214 -76v72h20v-194h-20v95c-10 11 -82 85 -214 85c-94 0 -178 -38 -214 -114c3 -9 14 -29 51 -53l314 -201
c76 -49 119 -87 119 -170c0 -138 -120 -217 -250 -217s-221 77 -257 115v-103h-20zM322 794l-126 105l12 14l114 -96l114 96l12 -14z" />
    <glyph glyph-name="scaron" unicode="&#x161;" horiz-adv-x="485" 
d="M48 0v170h20v-68c9 -13 76 -96 192 -96c54 0 105 19 137 55c-4 7 -13 20 -32 32l-205 131c-77 49 -108 72 -108 132c0 104 92 155 189 155c80 0 133 -35 159 -57v55h20v-156h-20v73c-9 10 -62 67 -160 67c-53 0 -105 -17 -136 -52c5 -9 15 -24 31 -34l215 -138
c66 -42 98 -67 98 -126c0 -99 -90 -155 -188 -155c-97 0 -163 54 -192 85v-73h-20zM241 568l-126 105l12 14l114 -96l114 96l12 -14z" />
    <glyph glyph-name="Ydieresis" unicode="&#x178;" horiz-adv-x="730" 
d="M211 0v18h90v318l-272 395h-58v18h333v-18h-104l236 -344l210 344h-100v18h202v-18h-78l-223 -366v-347h92v-18h-328zM278 804c-29 0 -55 25 -55 54s26 54 55 54s55 -25 55 -54s-26 -54 -55 -54zM473 804c-29 0 -55 25 -55 54s26 54 55 54s55 -25 55 -54s-26 -54 -55 -54
z" />
    <glyph glyph-name="Zcaron" unicode="&#x17d;" horiz-adv-x="729" 
d="M48 0v17l452 714h-416v-170h-20v188h606v-17l-452 -714h432v175h20v-193h-622zM343 794l-126 105l12 14l114 -96l114 96l12 -14z" />
    <glyph glyph-name="zcaron" unicode="&#x17e;" horiz-adv-x="535" 
d="M21 0v15l310 466h-257v-120h-20v138h443v-15l-312 -466h288v133h20v-151h-472zM276 568l-126 105l12 14l114 -96l114 96l12 -14z" />
    <glyph glyph-name="florin" unicode="&#x192;" horiz-adv-x="379" 
d="M-41 -54c33 0 63 -27 63 -62c0 -31 -25 -56 -42 -68c24 -9 51 -13 76 -13c15 0 30 2 43 5v545h-81v18h81v191c0 110 61 199 184 199c73 0 160 -32 160 -98c0 -40 -31 -63 -63 -63c-33 0 -63 27 -63 62c0 31 25 56 42 68c-24 9 -51 13 -76 13c-16 0 -30 -2 -43 -5v-367
h130v-18h-130v-369c0 -110 -61 -199 -184 -199c-73 0 -160 32 -160 98c0 40 31 63 63 63z" />
    <glyph glyph-name="circumflex" unicode="&#x2c6;" 
d="M36 791l-12 14l126 105l126 -105l-12 -14l-114 95z" />
    <glyph glyph-name="caron" unicode="&#x2c7;" 
d="M150 784l-126 105l12 14l114 -96l114 96l12 -14z" />
    <glyph glyph-name="breve" unicode="&#x2d8;" 
d="M150 805c-65 0 -117 39 -117 88h20c0 -39 44 -70 97 -70s97 31 97 70h20c0 -49 -52 -88 -117 -88z" />
    <glyph glyph-name="dotaccent" unicode="&#x2d9;" 
d="M150 789c-37 0 -70 32 -70 69s33 69 70 69s70 -32 70 -69s-33 -69 -70 -69z" />
    <glyph glyph-name="ring" unicode="&#x2da;" 
d="M150 733c-50 0 -92 41 -92 91s42 91 92 91s92 -41 92 -91s-42 -91 -92 -91zM150 751c40 0 72 33 72 73s-32 73 -72 73s-72 -33 -72 -73s32 -73 72 -73z" />
    <glyph glyph-name="ogonek" unicode="&#x2db;" 
d="M41 -133c0 81 107 149 107 149l10 -16s-97 -62 -97 -133c0 -36 25 -64 85 -64v-18c-74 0 -105 36 -105 82z" />
    <glyph glyph-name="tilde" unicode="&#x2dc;" 
d="M0 813c0 51 32 92 81 92c36 0 55 -21 76 -44c17 -20 34 -39 63 -39c37 0 61 33 61 74h20c0 -51 -32 -92 -81 -92c-37 0 -57 22 -77 45c-17 19 -34 38 -62 38c-37 0 -61 -33 -61 -74h-20z" />
    <glyph glyph-name="hungarumlaut" unicode="&#x2dd;" 
d="M61 791l-12 14l127 101l12 -14zM166 791l-12 14l127 101l12 -14z" />
    <glyph glyph-name="commaaccent" unicode="&#xf6c3;" 
d="M88 -103c0 28 22 55 59 55c46 0 66 -42 66 -76c0 -48 -41 -91 -110 -91v18c46 0 76 22 86 51c-10 -7 -22 -12 -39 -12c-41 0 -62 27 -62 55z" />
    <glyph glyph-name="endash" unicode="&#x2013;" horiz-adv-x="624" 
d="M61 248v82h502v-82h-502z" />
    <glyph glyph-name="emdash" unicode="&#x2014;" horiz-adv-x="1024" 
d="M61 248v82h902v-82h-902z" />
    <glyph glyph-name="quoteleft" unicode="&#x2018;" horiz-adv-x="236" 
d="M127 461c-64 0 -88 62 -88 121c0 86 48 179 140 179v-18c-78 0 -120 -83 -120 -161v-3c16 12 39 24 66 24c47 0 74 -35 74 -72c0 -36 -27 -70 -72 -70z" />
    <glyph glyph-name="quoteright" unicode="&#x2019;" horiz-adv-x="237" 
d="M62 461v18c78 0 120 83 120 161v3c-16 -13 -39 -24 -66 -24c-47 0 -74 35 -74 72c0 36 27 70 72 70c64 0 88 -62 88 -121c0 -86 -48 -179 -140 -179z" />
    <glyph glyph-name="quotesinglbase" unicode="&#x201a;" horiz-adv-x="259" 
d="M52 60c0 36 27 70 72 70c64 0 88 -62 88 -121c0 -86 -48 -179 -140 -179v18c78 0 120 83 120 161v2c-17 -12 -40 -23 -66 -23c-47 0 -74 35 -74 72z" />
    <glyph glyph-name="quotedblleft" unicode="&#x201c;" horiz-adv-x="440" 
d="M127 461c-64 0 -88 62 -88 121c0 86 48 179 140 179v-18c-78 0 -120 -83 -120 -161v-3c16 12 39 24 66 24c47 0 74 -35 74 -72c0 -36 -27 -70 -72 -70zM331 461c-64 0 -88 62 -88 121c0 86 48 179 140 179v-18c-78 0 -120 -83 -120 -161v-3c16 12 39 24 66 24
c47 0 74 -35 74 -72c0 -36 -27 -70 -72 -70z" />
    <glyph glyph-name="quotedblright" unicode="&#x201d;" horiz-adv-x="441" 
d="M62 461v18c78 0 120 83 120 161v3c-16 -13 -39 -24 -66 -24c-47 0 -74 35 -74 72c0 36 27 70 72 70c64 0 88 -62 88 -121c0 -86 -48 -179 -140 -179zM266 461v18c78 0 120 83 120 161v3c-16 -13 -39 -24 -66 -24c-47 0 -74 35 -74 72c0 36 27 70 72 70
c64 0 88 -62 88 -121c0 -86 -48 -179 -140 -179z" />
    <glyph glyph-name="quotedblbase" unicode="&#x201e;" horiz-adv-x="463" 
d="M52 60c0 36 27 70 72 70c64 0 88 -62 88 -121c0 -86 -48 -179 -140 -179v18c78 0 120 83 120 161v2c-17 -12 -40 -23 -66 -23c-47 0 -74 35 -74 72zM256 60c0 36 27 70 72 70c64 0 88 -62 88 -121c0 -86 -48 -179 -140 -179v18c78 0 120 83 120 161v2
c-17 -12 -40 -23 -66 -23c-47 0 -74 35 -74 72z" />
    <glyph glyph-name="dagger" unicode="&#x2020;" horiz-adv-x="342" 
d="M161 -54v537h-134v18h134v244h20v-244h134v-18h-134v-537h-20z" />
    <glyph glyph-name="daggerdbl" unicode="&#x2021;" horiz-adv-x="356" 
d="M168 -54v301h-134v18h134v218h-134v18h134v244h20v-244h134v-18h-134v-218h134v-18h-134v-301h-20z" />
    <glyph glyph-name="bullet" unicode="&#x2022;" horiz-adv-x="365" 
d="M182 211c-75 0 -138 62 -138 137c0 76 63 138 138 138c77 0 139 -62 139 -138c0 -75 -62 -137 -139 -137z" />
    <glyph glyph-name="ellipsis" unicode="&#x2026;" horiz-adv-x="762" 
d="M52 61c0 41 33 74 75 74s75 -33 75 -74s-33 -74 -75 -74s-75 33 -75 74zM306 61c0 41 33 74 75 74s75 -33 75 -74s-33 -74 -75 -74s-75 33 -75 74zM560 61c0 41 33 74 75 74s75 -33 75 -74s-33 -74 -75 -74s-75 33 -75 74z" />
    <glyph glyph-name="perthousand" unicode="&#x2030;" horiz-adv-x="794" 
d="M63 197l-12 14l400 341l12 -14zM186 489c-76 0 -137 61 -137 136s61 136 137 136s137 -61 137 -136s-61 -136 -137 -136zM186 507c64 0 117 53 117 118s-53 118 -117 118s-117 -53 -117 -118s53 -118 117 -118zM193 122c0 75 61 136 137 136s137 -61 137 -136
s-61 -136 -137 -136s-137 61 -137 136zM213 122c0 -65 53 -118 117 -118s117 53 117 118s-53 118 -117 118s-117 -53 -117 -118zM492 122c0 75 61 136 137 136s137 -61 137 -136s-61 -136 -137 -136s-137 61 -137 136zM512 122c0 -65 53 -118 117 -118s117 53 117 118
s-53 118 -117 118s-117 -53 -117 -118z" />
    <glyph glyph-name="guilsinglleft" unicode="&#x2039;" horiz-adv-x="270" 
d="M227 4l-218 262v12l218 262l16 -12l-213 -256l213 -256z" />
    <glyph glyph-name="guilsinglright" unicode="&#x203a;" horiz-adv-x="270" 
d="M27 16l213 256l-213 256l16 12l218 -262v-12l-218 -262z" />
    <glyph glyph-name="fraction" unicode="&#x2044;" horiz-adv-x="335" 
d="M0 -4l-18 8l354 745l18 -8z" />
    <glyph glyph-name="foursuperior" unicode="&#x2074;" horiz-adv-x="351" 
d="M133 442v14h36v81h-148v12l161 215h77v-213h48v-14h-48v-81h35v-14h-161zM40 551h129v171z" />
    <glyph glyph-name="Euro" unicode="&#x20ac;" horiz-adv-x="657" 
d="M247 51c42 -29 92 -45 148 -45c157 0 206 135 206 135l18 -6s-53 -147 -224 -147c-161 0 -278 127 -309 297h-54v18h51c-3 23 -5 47 -5 72c0 15 1 29 2 44h-48v18h49c23 190 153 324 318 324c93 0 203 -43 203 -114c0 -36 -30 -62 -63 -62s-63 27 -63 62
c0 32 25 56 44 70c-35 17 -80 26 -121 26c-56 0 -108 -17 -152 -48v-258h288v-18h-288v-116h252v-18h-252v-234z" />
    <glyph glyph-name="trademark" unicode="&#x2122;" horiz-adv-x="786" 
d="M364 436v14h33v285h-33v14h90l98 -223l90 223h99v-14h-33v-285h33v-14h-133v14h33v257l-107 -268h-14l-107 239v-228h32v-14h-81zM117 436v14h32v285h-94v-65h-16v79h288v-79h-16v65h-95v-285h33v-14h-132z" />
    <glyph glyph-name="minus" unicode="&#x2212;" horiz-adv-x="700" 
d="M65 332v18h570v-18h-570z" />
    <glyph glyph-name="approxequal" unicode="&#x2248;" horiz-adv-x="700" 
d="M87 256c0 81 55 148 140 148c62 0 97 -35 133 -72c32 -34 65 -67 121 -67c73 0 120 59 120 130h20c0 -81 -55 -148 -140 -148c-64 0 -100 36 -135 73c-32 33 -65 66 -119 66c-73 0 -120 -59 -120 -130h-20z" />
    <glyph glyph-name="notequal" unicode="&#x2260;" horiz-adv-x="700" 
d="M142 84l113 148h-190v18h204l140 182h-344v18h358l120 156l16 -10l-112 -146h188v-18h-202l-140 -182h342v-18h-356l-121 -158z" />
    <glyph glyph-name="lessequal" unicode="&#x2264;" horiz-adv-x="700" 
d="M40 333v16l570 300l10 -16l-555 -292l555 -292l-10 -16zM45 -62h570v-18h-570v18z" />
    <glyph glyph-name="greaterequal" unicode="&#x2265;" horiz-adv-x="700" 
d="M79 49l555 292l-555 292l10 16l570 -300v-16l-570 -300zM84 -62h570v-18h-570v18z" />
    <glyph glyph-name="n" unicode="n" horiz-adv-x="703" 
d="M21 0v18h86v463h-86v18h227v-106c9 26 22 48 41 66c35 34 84 52 135 52c61 0 110 -25 140 -69c24 -35 35 -83 35 -135v-295c50 7 88 57 88 118h20c0 -76 -55 -137 -121 -137c-78 0 -128 61 -128 140v356c-11 2 -23 4 -35 4c-103 0 -172 -80 -175 -179v-296h86v-18h-313z
" />
    <glyph glyph-name="Amacron" unicode="&#x100;" horiz-adv-x="730" 
d="M-20 0v18h69l303 734h18l320 -734h60v-18h-307v18h91l-84 196h-299l-81 -196h102v-18h-192zM158 232h285l-144 340zM255 849v18h210v-18h-210z" />
    <glyph glyph-name="amacron" unicode="&#x101;" horiz-adv-x="563" 
d="M28 125c0 87 62 134 149 134h38c62 0 108 27 110 70v157c-17 5 -36 7 -55 7c-44 0 -88 -10 -122 -27c15 -12 44 -40 44 -71c0 -36 -31 -60 -63 -60c-34 0 -63 26 -63 62c0 62 104 114 204 114c120 0 197 -75 197 -207v-292c51 9 87 58 87 118h20
c0 -76 -52 -137 -124 -137c-57 0 -101 36 -118 90c-4 -17 -12 -32 -24 -46c-27 -30 -69 -49 -127 -49c-104 0 -153 60 -153 137zM178 6h2c97 0 145 61 145 134v143c-9 -12 -21 -22 -37 -29c-20 -9 -45 -13 -73 -13h-37v-235zM167 623v18h210v-18h-210z" />
    <glyph glyph-name="Abreve" unicode="&#x102;" horiz-adv-x="730" 
d="M-20 0v18h69l303 734h18l320 -734h60v-18h-307v18h91l-84 196h-299l-81 -196h102v-18h-192zM158 232h285l-144 340zM360 815c-65 0 -117 39 -117 88h20c0 -39 44 -70 97 -70s97 31 97 70h20c0 -49 -52 -88 -117 -88z" />
    <glyph glyph-name="abreve" unicode="&#x103;" horiz-adv-x="563" 
d="M28 125c0 87 62 134 149 134h38c62 0 108 27 110 70v157c-17 5 -36 7 -55 7c-44 0 -88 -10 -122 -27c15 -12 44 -40 44 -71c0 -36 -31 -60 -63 -60c-34 0 -63 26 -63 62c0 62 104 114 204 114c120 0 197 -75 197 -207v-292c51 9 87 58 87 118h20
c0 -76 -52 -137 -124 -137c-57 0 -101 36 -118 90c-4 -17 -12 -32 -24 -46c-27 -30 -69 -49 -127 -49c-104 0 -153 60 -153 137zM178 6h2c97 0 145 61 145 134v143c-9 -12 -21 -22 -37 -29c-20 -9 -45 -13 -73 -13h-37v-235zM272 589c-65 0 -117 39 -117 88h20
c0 -39 44 -70 97 -70s97 31 97 70h20c0 -49 -52 -88 -117 -88z" />
    <glyph glyph-name="Aogonek" unicode="&#x104;" horiz-adv-x="730" 
d="M-20 0v18h69l303 734h18l320 -734h60v-18s-97 -62 -97 -133c0 -36 25 -64 85 -64v-18c-74 0 -105 36 -105 82c0 58 53 109 85 133h-275v18h91l-84 196h-299l-81 -196h102v-18h-192zM158 232h285l-144 340z" />
    <glyph glyph-name="aogonek" unicode="&#x105;" horiz-adv-x="563" 
d="M28 125c0 87 62 134 149 134h38c62 0 108 27 110 70v157c-17 5 -36 7 -55 7c-44 0 -88 -10 -122 -27c15 -12 44 -40 44 -71c0 -36 -31 -60 -63 -60c-34 0 -63 26 -63 62c0 62 104 114 204 114c120 0 197 -75 197 -207v-292c51 9 87 58 87 118h20c0 -60 -33 -110 -81 -129
c0 0 -97 -63 -97 -134c0 -36 25 -64 85 -64v-18c-74 0 -105 36 -105 82c0 53 45 100 76 126h-2c-57 0 -101 36 -118 90c-4 -17 -12 -32 -24 -46c-27 -30 -69 -49 -127 -49c-104 0 -153 60 -153 137zM178 6h2c97 0 145 61 145 134v143c-9 -12 -21 -22 -37 -29
c-20 -9 -45 -13 -73 -13h-37v-235z" />
    <glyph glyph-name="Cacute" unicode="&#x106;" horiz-adv-x="811" 
d="M225 68c55 -39 125 -62 206 -62c201 0 294 143 309 252l20 -2c-16 -115 -114 -268 -329 -268c-230 0 -375 176 -375 392c0 217 170 381 381 381c139 0 236 -73 274 -108v104h20v-194h-20v62c-11 13 -111 118 -274 118c-79 0 -153 -25 -212 -68v-607zM397 800l-12 16
l152 101l12 -16z" />
    <glyph glyph-name="cacute" unicode="&#x107;" horiz-adv-x="525" 
d="M183 30c30 -16 65 -24 103 -24c149 0 194 135 194 135l18 -6s-49 -147 -212 -147c-147 0 -251 119 -251 262c0 147 114 261 258 261c91 0 197 -47 197 -114c0 -36 -30 -62 -63 -62s-63 27 -63 62c0 33 26 56 45 70c-34 16 -77 26 -116 26c-40 0 -77 -10 -110 -27v-436z
M255 574l-12 16l152 101l12 -16z" />
    <glyph glyph-name="Ccircumflex" unicode="&#x108;" horiz-adv-x="811" 
d="M225 68c55 -39 125 -62 206 -62c201 0 294 143 309 252l20 -2c-16 -115 -114 -268 -329 -268c-230 0 -375 176 -375 392c0 217 170 381 381 381c139 0 236 -73 274 -108v104h20v-194h-20v62c-11 13 -111 118 -274 118c-79 0 -153 -25 -212 -68v-607zM312 801l-12 14
l126 105l126 -105l-12 -14l-114 95z" />
    <glyph glyph-name="ccircumflex" unicode="&#x109;" horiz-adv-x="525" 
d="M183 30c30 -16 65 -24 103 -24c149 0 194 135 194 135l18 -6s-49 -147 -212 -147c-147 0 -251 119 -251 262c0 147 114 261 258 261c91 0 197 -47 197 -114c0 -36 -30 -62 -63 -62s-63 27 -63 62c0 33 26 56 45 70c-34 16 -77 26 -116 26c-40 0 -77 -10 -110 -27v-436z
M170 575l-12 14l126 105l126 -105l-12 -14l-114 95z" />
    <glyph glyph-name="Cdotaccent" unicode="&#x10a;" horiz-adv-x="811" 
d="M225 68c55 -39 125 -62 206 -62c201 0 294 143 309 252l20 -2c-16 -115 -114 -268 -329 -268c-230 0 -375 176 -375 392c0 217 170 381 381 381c139 0 236 -73 274 -108v104h20v-194h-20v62c-11 13 -111 118 -274 118c-79 0 -153 -25 -212 -68v-607zM426 799
c-37 0 -70 32 -70 69s33 69 70 69s70 -32 70 -69s-33 -69 -70 -69z" />
    <glyph glyph-name="cdotaccent" unicode="&#x10b;" horiz-adv-x="525" 
d="M183 30c30 -16 65 -24 103 -24c149 0 194 135 194 135l18 -6s-49 -147 -212 -147c-147 0 -251 119 -251 262c0 147 114 261 258 261c91 0 197 -47 197 -114c0 -36 -30 -62 -63 -62s-63 27 -63 62c0 33 26 56 45 70c-34 16 -77 26 -116 26c-40 0 -77 -10 -110 -27v-436z
M284 573c-37 0 -70 32 -70 69s33 69 70 69s70 -32 70 -69s-33 -69 -70 -69z" />
    <glyph glyph-name="Ccaron" unicode="&#x10c;" horiz-adv-x="811" 
d="M225 68c55 -39 125 -62 206 -62c201 0 294 143 309 252l20 -2c-16 -115 -114 -268 -329 -268c-230 0 -375 176 -375 392c0 217 170 381 381 381c139 0 236 -73 274 -108v104h20v-194h-20v62c-11 13 -111 118 -274 118c-79 0 -153 -25 -212 -68v-607zM426 794l-126 105
l12 14l114 -96l114 96l12 -14z" />
    <glyph glyph-name="ccaron" unicode="&#x10d;" horiz-adv-x="525" 
d="M183 30c30 -16 65 -24 103 -24c149 0 194 135 194 135l18 -6s-49 -147 -212 -147c-147 0 -251 119 -251 262c0 147 114 261 258 261c91 0 197 -47 197 -114c0 -36 -30 -62 -63 -62s-63 27 -63 62c0 33 26 56 45 70c-34 16 -77 26 -116 26c-40 0 -77 -10 -110 -27v-436z
M284 568l-126 105l12 14l114 -96l114 96l12 -14z" />
    <glyph glyph-name="Dcaron" unicode="&#x10e;" horiz-adv-x="861" 
d="M52 0v18h91v713h-91v18h361c230 0 392 -168 392 -371c0 -210 -162 -378 -392 -378h-361zM289 18h124c87 0 164 25 225 69v575c-61 43 -138 69 -225 69h-124v-713zM391 794l-126 105l12 14l114 -96l114 96l12 -14z" />
    <glyph glyph-name="dcaron" unicode="&#x10f;" horiz-adv-x="662" 
d="M242 -12c-130 0 -204 126 -204 264c0 167 100 259 207 259c49 0 90 -16 121 -42c20 -17 34 -38 43 -61v323h-86v18h227v-737c50 7 88 57 88 118h20c0 -76 -55 -137 -121 -137c-70 0 -118 49 -127 116c-10 -34 -28 -63 -55 -84c-30 -23 -68 -37 -113 -37zM191 14
c15 -6 32 -8 51 -8c101 0 164 79 167 178v146c0 90 -65 163 -164 163c-19 0 -37 -3 -54 -9v-470zM634 708c0 28 22 55 59 55c46 0 66 -42 66 -76c0 -48 -41 -91 -110 -91v18c46 0 76 22 86 51c-10 -7 -22 -12 -39 -12c-41 0 -62 27 -62 55z" />
    <glyph glyph-name="Dcroat" unicode="&#x110;" horiz-adv-x="861" 
d="M52 0v18h91v353h-91v18h91v342h-91v18h361c230 0 392 -168 392 -371c0 -210 -162 -378 -392 -378h-361zM289 18h124c87 0 164 25 225 69v575c-61 43 -138 69 -225 69h-124v-342h186v-18h-186v-353z" />
    <glyph glyph-name="dcroat" unicode="&#x111;" horiz-adv-x="662" 
d="M242 -12c-130 0 -204 126 -204 264c0 167 100 259 207 259c49 0 90 -16 121 -42c20 -17 34 -38 43 -61v208h-167v18h167v97h-86v18h227v-115h95v-18h-95v-604c50 7 88 57 88 118h20c0 -76 -55 -137 -121 -137c-70 0 -118 49 -127 116c-10 -34 -28 -63 -55 -84
c-30 -23 -68 -37 -113 -37zM191 14c15 -6 32 -8 51 -8c101 0 164 79 167 178v146c0 90 -65 163 -164 163c-19 0 -37 -3 -54 -9v-470z" />
    <glyph glyph-name="Emacron" unicode="&#x112;" horiz-adv-x="735" 
d="M52 0v18h91v713h-91v18h606v-186h-20v168h-349v-347h241v106h20v-226h-20v102h-241v-348h359v169h20v-187h-616zM263 849v18h210v-18h-210z" />
    <glyph glyph-name="emacron" unicode="&#x113;" horiz-adv-x="544" 
d="M184 30c30 -15 65 -24 103 -24c148 0 196 135 196 135l18 -6s-52 -147 -214 -147c-147 0 -252 120 -252 262c0 144 110 261 248 261c132 0 224 -109 233 -244h-332v-237zM184 285h172v195c-23 8 -47 13 -73 13c-36 0 -69 -9 -99 -24v-184zM176 623v18h210v-18h-210z" />
    <glyph glyph-name="Ebreve" unicode="&#x114;" horiz-adv-x="735" 
d="M52 0v18h91v713h-91v18h606v-186h-20v168h-349v-347h241v106h20v-226h-20v102h-241v-348h359v169h20v-187h-616zM368 815c-65 0 -117 39 -117 88h20c0 -39 44 -70 97 -70s97 31 97 70h20c0 -49 -52 -88 -117 -88z" />
    <glyph glyph-name="ebreve" unicode="&#x115;" horiz-adv-x="544" 
d="M184 30c30 -15 65 -24 103 -24c148 0 196 135 196 135l18 -6s-52 -147 -214 -147c-147 0 -252 120 -252 262c0 144 110 261 248 261c132 0 224 -109 233 -244h-332v-237zM184 285h172v195c-23 8 -47 13 -73 13c-36 0 -69 -9 -99 -24v-184zM281 589c-65 0 -117 39 -117 88
h20c0 -39 44 -70 97 -70s97 31 97 70h20c0 -49 -52 -88 -117 -88z" />
    <glyph glyph-name="Edotaccent" unicode="&#x116;" horiz-adv-x="735" 
d="M52 0v18h91v713h-91v18h606v-186h-20v168h-349v-347h241v106h20v-226h-20v102h-241v-348h359v169h20v-187h-616zM368 799c-37 0 -70 32 -70 69s33 69 70 69s70 -32 70 -69s-33 -69 -70 -69z" />
    <glyph glyph-name="edotaccent" unicode="&#x117;" horiz-adv-x="544" 
d="M184 30c30 -15 65 -24 103 -24c148 0 196 135 196 135l18 -6s-52 -147 -214 -147c-147 0 -252 120 -252 262c0 144 110 261 248 261c132 0 224 -109 233 -244h-332v-237zM184 285h172v195c-23 8 -47 13 -73 13c-36 0 -69 -9 -99 -24v-184zM281 573c-37 0 -70 32 -70 69
s33 69 70 69s70 -32 70 -69s-33 -69 -70 -69z" />
    <glyph glyph-name="Eogonek" unicode="&#x118;" horiz-adv-x="735" 
d="M52 0v18h91v713h-91v18h606v-186h-20v168h-349v-347h241v106h20v-226h-20v102h-241v-348h359v169h20v-187s-97 -62 -97 -133c0 -36 25 -64 85 -64v-18c-74 0 -105 36 -105 82c0 58 53 109 85 133h-584z" />
    <glyph glyph-name="eogonek" unicode="&#x119;" horiz-adv-x="544" 
d="M184 30c30 -15 65 -24 103 -24c148 0 196 135 196 135l18 -6s-35 -98 -136 -134c0 0 -97 -63 -97 -134c0 -36 25 -64 85 -64v-18c-74 0 -105 36 -105 82c0 51 42 97 73 124c-11 -2 -22 -3 -34 -3c-147 0 -252 120 -252 262c0 144 110 261 248 261
c132 0 224 -109 233 -244h-332v-237zM184 285h172v195c-23 8 -47 13 -73 13c-36 0 -69 -9 -99 -24v-184z" />
    <glyph glyph-name="Ecaron" unicode="&#x11a;" horiz-adv-x="735" 
d="M52 0v18h91v713h-91v18h606v-186h-20v168h-349v-347h241v106h20v-226h-20v102h-241v-348h359v169h20v-187h-616zM368 794l-126 105l12 14l114 -96l114 96l12 -14z" />
    <glyph glyph-name="ecaron" unicode="&#x11b;" horiz-adv-x="544" 
d="M184 30c30 -15 65 -24 103 -24c148 0 196 135 196 135l18 -6s-52 -147 -214 -147c-147 0 -252 120 -252 262c0 144 110 261 248 261c132 0 224 -109 233 -244h-332v-237zM184 285h172v195c-23 8 -47 13 -73 13c-36 0 -69 -9 -99 -24v-184zM281 568l-126 105l12 14
l114 -96l114 96l12 -14z" />
    <glyph glyph-name="Gcircumflex" unicode="&#x11c;" horiz-adv-x="861" 
d="M224 75c59 -43 133 -69 217 -69c75 0 121 21 157 39l14 7v261h-91v18h303v-18h-66v-313h-17c-18 36 -48 50 -71 50c-20 0 -42 -10 -65 -21c-38 -18 -86 -41 -167 -41c-222 0 -383 178 -383 393c0 217 164 380 397 380c148 0 232 -66 266 -100v96h20v-194h-20v69
c-6 8 -85 111 -266 111c-89 0 -166 -25 -228 -68v-600zM328 801l-12 14l126 105l126 -105l-12 -14l-114 95z" />
    <glyph glyph-name="gcircumflex" unicode="&#x11d;" horiz-adv-x="543" 
d="M75 12c-17 21 -27 49 -27 81c0 62 38 104 84 123c-46 30 -70 77 -70 129c0 92 76 166 214 166c44 0 83 -8 114 -21c25 3 52 9 75 18c-17 13 -45 38 -45 70c0 31 26 59 63 59c36 0 63 -26 63 -62c0 -56 -64 -87 -130 -99c49 -31 75 -78 75 -131c0 -91 -76 -167 -215 -167
c-49 0 -90 9 -123 26c-44 -13 -85 -53 -85 -111v-5h267c150 0 198 -64 198 -133c0 -99 -108 -170 -258 -170c-141 0 -237 69 -237 146c0 32 11 58 37 81zM88 -1c-21 -20 -30 -42 -30 -68c0 -67 88 -128 217 -128c138 0 238 63 238 152v6h-326c-38 0 -74 14 -99 38zM194 207
c24 -7 51 -11 82 -11s59 4 83 11v275c-24 7 -52 11 -83 11s-58 -4 -82 -11v-275zM141 575l-12 14l126 105l126 -105l-12 -14l-114 95z" />
    <glyph glyph-name="Gbreve" unicode="&#x11e;" horiz-adv-x="861" 
d="M224 75c59 -43 133 -69 217 -69c75 0 121 21 157 39l14 7v261h-91v18h303v-18h-66v-313h-17c-18 36 -48 50 -71 50c-20 0 -42 -10 -65 -21c-38 -18 -86 -41 -167 -41c-222 0 -383 178 -383 393c0 217 164 380 397 380c148 0 232 -66 266 -100v96h20v-194h-20v69
c-6 8 -85 111 -266 111c-89 0 -166 -25 -228 -68v-600zM442 815c-65 0 -117 39 -117 88h20c0 -39 44 -70 97 -70s97 31 97 70h20c0 -49 -52 -88 -117 -88z" />
    <glyph glyph-name="gbreve" unicode="&#x11f;" horiz-adv-x="543" 
d="M75 12c-17 21 -27 49 -27 81c0 62 38 104 84 123c-46 30 -70 77 -70 129c0 92 76 166 214 166c44 0 83 -8 114 -21c25 3 52 9 75 18c-17 13 -45 38 -45 70c0 31 26 59 63 59c36 0 63 -26 63 -62c0 -56 -64 -87 -130 -99c49 -31 75 -78 75 -131c0 -91 -76 -167 -215 -167
c-49 0 -90 9 -123 26c-44 -13 -85 -53 -85 -111v-5h267c150 0 198 -64 198 -133c0 -99 -108 -170 -258 -170c-141 0 -237 69 -237 146c0 32 11 58 37 81zM88 -1c-21 -20 -30 -42 -30 -68c0 -67 88 -128 217 -128c138 0 238 63 238 152v6h-326c-38 0 -74 14 -99 38zM194 207
c24 -7 51 -11 82 -11s59 4 83 11v275c-24 7 -52 11 -83 11s-58 -4 -82 -11v-275zM275 589c-65 0 -117 39 -117 88h20c0 -39 44 -70 97 -70s97 31 97 70h20c0 -49 -52 -88 -117 -88z" />
    <glyph glyph-name="Gdotaccent" unicode="&#x120;" horiz-adv-x="861" 
d="M224 75c59 -43 133 -69 217 -69c75 0 121 21 157 39l14 7v261h-91v18h303v-18h-66v-313h-17c-18 36 -48 50 -71 50c-20 0 -42 -10 -65 -21c-38 -18 -86 -41 -167 -41c-222 0 -383 178 -383 393c0 217 164 380 397 380c148 0 232 -66 266 -100v96h20v-194h-20v69
c-6 8 -85 111 -266 111c-89 0 -166 -25 -228 -68v-600zM442 799c-37 0 -70 32 -70 69s33 69 70 69s70 -32 70 -69s-33 -69 -70 -69z" />
    <glyph glyph-name="gdotaccent" unicode="&#x121;" horiz-adv-x="543" 
d="M75 12c-17 21 -27 49 -27 81c0 62 38 104 84 123c-46 30 -70 77 -70 129c0 92 76 166 214 166c44 0 83 -8 114 -21c25 3 52 9 75 18c-17 13 -45 38 -45 70c0 31 26 59 63 59c36 0 63 -26 63 -62c0 -56 -64 -87 -130 -99c49 -31 75 -78 75 -131c0 -91 -76 -167 -215 -167
c-49 0 -90 9 -123 26c-44 -13 -85 -53 -85 -111v-5h267c150 0 198 -64 198 -133c0 -99 -108 -170 -258 -170c-141 0 -237 69 -237 146c0 32 11 58 37 81zM88 -1c-21 -20 -30 -42 -30 -68c0 -67 88 -128 217 -128c138 0 238 63 238 152v6h-326c-38 0 -74 14 -99 38zM194 207
c24 -7 51 -11 82 -11s59 4 83 11v275c-24 7 -52 11 -83 11s-58 -4 -82 -11v-275zM275 573c-37 0 -70 32 -70 69s33 69 70 69s70 -32 70 -69s-33 -69 -70 -69z" />
    <glyph glyph-name="Gcommaaccent" unicode="&#x122;" horiz-adv-x="861" 
d="M224 75c59 -43 133 -69 217 -69c75 0 121 21 157 39l14 7v261h-91v18h303v-18h-66v-313h-17c-18 36 -48 50 -71 50c-20 0 -42 -10 -65 -21c-38 -18 -86 -41 -167 -41c-222 0 -383 178 -383 393c0 217 164 380 397 380c148 0 232 -66 266 -100v96h20v-194h-20v69
c-6 8 -85 111 -266 111c-89 0 -166 -25 -228 -68v-600zM362 -103c0 28 22 55 59 55c46 0 66 -42 66 -76c0 -48 -41 -91 -110 -91v18c46 0 76 22 86 51c-10 -7 -22 -12 -39 -12c-41 0 -62 27 -62 55z" />
    <glyph glyph-name="gcommaaccent" unicode="&#x123;" horiz-adv-x="543" 
d="M75 12c-17 21 -27 49 -27 81c0 62 38 104 84 123c-46 30 -70 77 -70 129c0 92 76 166 214 166c44 0 83 -8 114 -21c25 3 52 9 75 18c-17 13 -45 38 -45 70c0 31 26 59 63 59c36 0 63 -26 63 -62c0 -56 -64 -87 -130 -99c49 -31 75 -78 75 -131c0 -91 -76 -167 -215 -167
c-49 0 -90 9 -123 26c-44 -13 -85 -53 -85 -111v-5h267c150 0 198 -64 198 -133c0 -99 -108 -170 -258 -170c-141 0 -237 69 -237 146c0 32 11 58 37 81zM88 -1c-21 -20 -30 -42 -30 -68c0 -67 88 -128 217 -128c138 0 238 63 238 152v6h-326c-38 0 -74 14 -99 38zM194 207
c24 -7 51 -11 82 -11s59 4 83 11v275c-24 7 -52 11 -83 11s-58 -4 -82 -11v-275zM337 612c0 -28 -22 -55 -59 -55c-46 0 -66 42 -66 76c0 48 41 91 110 91v-18c-46 0 -76 -22 -86 -51c10 7 22 12 39 12c41 0 62 -27 62 -55z" />
    <glyph glyph-name="Hcircumflex" unicode="&#x124;" horiz-adv-x="957" 
d="M52 0v18h91v713h-91v18h328v-18h-91v-345h379v345h-91v18h328v-18h-91v-713h91v-18h-328v18h91v350h-379v-350h91v-18h-328zM352 801l-12 14l126 105l126 -105l-12 -14l-114 95z" />
    <glyph glyph-name="hcircumflex" unicode="&#x125;" horiz-adv-x="694" 
d="M12 0v18h86v713h-86v18h227v-356c9 26 22 48 41 66c35 34 84 52 135 52c61 0 110 -25 140 -69c24 -35 35 -83 35 -135v-295c50 7 88 57 88 118h20c0 -76 -55 -137 -121 -137c-78 0 -128 61 -128 140v356c-11 2 -23 4 -35 4c-103 0 -172 -80 -175 -179v-296h86v-18h-313z
M52 801l-12 14l126 105l126 -105l-12 -14l-114 95z" />
    <glyph glyph-name="Hbar" unicode="&#x126;" horiz-adv-x="957" 
d="M52 0v18h91v525h-93v18h93v170h-91v18h328v-18h-91v-170h379v170h-91v18h328v-18h-91v-170h93v-18h-93v-525h91v-18h-328v18h91v350h-379v-350h91v-18h-328zM289 386h379v157h-379v-157z" />
    <glyph glyph-name="hbar" unicode="&#x127;" horiz-adv-x="694" 
d="M12 0v18h86v598h-89v18h89v97h-86v18h227v-115h168v-18h-168v-223c9 26 22 48 41 66c35 34 84 52 135 52c61 0 110 -25 140 -69c24 -35 35 -83 35 -135v-295c50 7 88 57 88 118h20c0 -76 -55 -137 -121 -137c-78 0 -128 61 -128 140v356c-11 2 -23 4 -35 4
c-103 0 -172 -80 -175 -179v-296h86v-18h-313z" />
    <glyph glyph-name="Itilde" unicode="&#x128;" horiz-adv-x="432" 
d="M52 0v18h91v713h-91v18h328v-18h-91v-713h91v-18h-328zM66 823c0 51 32 92 81 92c36 0 55 -21 76 -44c17 -20 34 -39 63 -39c37 0 61 33 61 74h20c0 -51 -32 -92 -81 -92c-37 0 -57 22 -77 45c-17 19 -34 38 -62 38c-37 0 -61 -33 -61 -74h-20z" />
    <glyph glyph-name="itilde" unicode="&#x129;" horiz-adv-x="346" 
d="M21 0v18h86v463h-86v18h227v-481h86v-18h-313zM27 597c0 51 32 92 81 92c36 0 55 -21 76 -44c17 -20 34 -39 63 -39c37 0 61 33 61 74h20c0 -51 -32 -92 -81 -92c-37 0 -57 22 -77 45c-17 19 -34 38 -62 38c-37 0 -61 -33 -61 -74h-20z" />
    <glyph glyph-name="Imacron" unicode="&#x12a;" horiz-adv-x="432" 
d="M52 0v18h91v713h-91v18h328v-18h-91v-713h91v-18h-328zM111 849v18h210v-18h-210z" />
    <glyph glyph-name="imacron" unicode="&#x12b;" horiz-adv-x="346" 
d="M21 0v18h86v463h-86v18h227v-481h86v-18h-313zM72 623v18h210v-18h-210z" />
    <glyph glyph-name="Ibreve" unicode="&#x12c;" horiz-adv-x="432" 
d="M52 0v18h91v713h-91v18h328v-18h-91v-713h91v-18h-328zM216 815c-65 0 -117 39 -117 88h20c0 -39 44 -70 97 -70s97 31 97 70h20c0 -49 -52 -88 -117 -88z" />
    <glyph glyph-name="ibreve" unicode="&#x12d;" horiz-adv-x="346" 
d="M21 0v18h86v463h-86v18h227v-481h86v-18h-313zM177 589c-65 0 -117 39 -117 88h20c0 -39 44 -70 97 -70s97 31 97 70h20c0 -49 -52 -88 -117 -88z" />
    <glyph glyph-name="Iogonek" unicode="&#x12e;" horiz-adv-x="432" 
d="M52 0v18h91v713h-91v18h328v-18h-91v-713h91v-18s-97 -62 -97 -133c0 -36 25 -64 85 -64v-18c-74 0 -105 36 -105 82c0 58 53 109 85 133h-296z" />
    <glyph glyph-name="iogonek" unicode="&#x12f;" horiz-adv-x="346" 
d="M21 0v18h86v463h-86v18h227v-481h86v-18s-97 -62 -97 -133c0 -36 25 -64 85 -64v-18c-74 0 -105 36 -105 82c0 58 53 109 85 133h-281zM177 586c-37 0 -70 32 -70 69s33 69 70 69s70 -32 70 -69s-33 -69 -70 -69z" />
    <glyph glyph-name="Idotaccent" unicode="&#x130;" horiz-adv-x="432" 
d="M52 0v18h91v713h-91v18h328v-18h-91v-713h91v-18h-328zM216 799c-37 0 -70 32 -70 69s33 69 70 69s70 -32 70 -69s-33 -69 -70 -69z" />
    <glyph glyph-name="IJ" unicode="&#x132;" horiz-adv-x="890" 
d="M52 0v18h91v713h-91v18h328v-18h-91v-713h91v-18h-328zM422 92c0 42 32 65 67 65c38 0 66 -29 66 -62c0 -30 -24 -58 -48 -75c24 -9 53 -14 78 -14c11 0 21 1 31 2v723h-91v18h328v-18h-91v-539c0 -115 -59 -204 -177 -204c-71 0 -163 33 -163 104z" />
    <glyph glyph-name="ij" unicode="&#x133;" horiz-adv-x="668" 
d="M21 0v18h86v463h-86v18h227v-481h86v-18h-313zM177 586c-37 0 -70 32 -70 69s33 69 70 69s70 -32 70 -69s-33 -69 -70 -69zM370 -66c32 0 54 -25 54 -56c0 -33 -26 -55 -42 -65c14 -6 31 -10 50 -10c26 0 48 7 66 19c-10 19 -54 110 -54 220v439h-86v18h227v-503
c0 -116 -46 -211 -152 -211c-68 0 -120 39 -120 91c0 40 29 58 57 58zM514 586c-37 0 -70 32 -70 69s33 69 70 69s70 -32 70 -69s-33 -69 -70 -69z" />
    <glyph glyph-name="Jcircumflex" unicode="&#x134;" horiz-adv-x="482" 
d="M14 92c0 42 32 65 67 65c38 0 66 -29 66 -62c0 -30 -24 -58 -48 -75c24 -9 53 -14 78 -14c11 0 21 1 31 2v723h-91v18h328v-18h-91v-539c0 -115 -59 -204 -177 -204c-71 0 -163 33 -163 104zM162 801l-12 14l126 105l126 -105l-12 -14l-114 95z" />
    <glyph glyph-name="jcircumflex" unicode="&#x135;" horiz-adv-x="322" 
d="M24 -66c32 0 54 -25 54 -56c0 -33 -26 -55 -42 -65c14 -6 31 -10 50 -10c26 0 48 7 66 19c-10 19 -54 110 -54 220v439h-86v18h227v-503c0 -116 -46 -211 -152 -211c-68 0 -120 39 -120 91c0 40 29 58 57 58zM54 575l-12 14l126 105l126 -105l-12 -14l-114 95z" />
    <glyph glyph-name="Kcommaaccent" unicode="&#x136;" horiz-adv-x="812" 
d="M52 0v18h91v713h-91v18h328v-18h-91v-369l357 369h-103v18h202v-18h-73l-230 -238l278 -464c34 23 54 64 54 111h20c0 -81 -55 -147 -137 -147c-28 0 -63 8 -92 29c-18 13 -31 28 -44 50l-182 315l-50 -51v-318h91v-18h-328zM368 -103c0 28 22 55 59 55
c46 0 66 -42 66 -76c0 -48 -41 -91 -110 -91v18c46 0 76 22 86 51c-10 -7 -22 -12 -39 -12c-41 0 -62 27 -62 55z" />
    <glyph glyph-name="kcommaaccent" unicode="&#x137;" horiz-adv-x="647" 
d="M12 0v18h86v713h-86v18h227v-516l259 248h-89v18h192v-18h-74l-139 -132l190 -314c24 22 40 56 40 95h20c0 -76 -54 -137 -123 -137c-22 0 -49 6 -72 20c-18 11 -36 29 -50 54l-105 186l-49 -47v-188h86v-18h-313zM298 -103c0 28 22 55 59 55c46 0 66 -42 66 -76
c0 -48 -41 -91 -110 -91v18c46 0 76 22 86 51c-10 -7 -22 -12 -39 -12c-41 0 -62 27 -62 55z" />
    <glyph glyph-name="kgreenlandic" unicode="&#x138;" horiz-adv-x="665" 
d="M22 0v18h86v463h-86v18h227v-267l259 249h-90v18h192v-18h-75l-140 -134l193 -319c30 21 51 58 51 102h20c0 -76 -58 -137 -125 -137c-47 0 -93 19 -125 75l-108 188l-52 -49v-189h86v-18h-313z" />
    <glyph glyph-name="Lacute" unicode="&#x139;" horiz-adv-x="681" 
d="M52 0v18h91v713h-91v18h328v-18h-91v-713h344v189h20v-207h-601zM193 800l-12 16l152 101l12 -16z" />
    <glyph glyph-name="lacute" unicode="&#x13a;" horiz-adv-x="337" 
d="M12 0v18h86v713h-86v18h227v-731h86v-18h-313zM152 800l-12 16l152 101l12 -16z" />
    <glyph glyph-name="Lcommaaccent" unicode="&#x13b;" horiz-adv-x="681" 
d="M52 0v18h91v713h-91v18h328v-18h-91v-713h344v189h20v-207h-601zM337 -103c0 28 22 55 59 55c46 0 66 -42 66 -76c0 -48 -41 -91 -110 -91v18c46 0 76 22 86 51c-10 -7 -22 -12 -39 -12c-41 0 -62 27 -62 55z" />
    <glyph glyph-name="lcommaaccent" unicode="&#x13c;" horiz-adv-x="337" 
d="M12 0v18h86v713h-86v18h227v-731h86v-18h-313zM104 -103c0 28 22 55 59 55c46 0 66 -42 66 -76c0 -48 -41 -91 -110 -91v18c46 0 76 22 86 51c-10 -7 -22 -12 -39 -12c-41 0 -62 27 -62 55z" />
    <glyph glyph-name="Lcaron" unicode="&#x13d;" horiz-adv-x="681" 
d="M52 0v18h91v713h-91v18h328v-18h-91v-713h344v189h20v-207h-601zM469 708c0 28 22 55 59 55c46 0 66 -42 66 -76c0 -48 -41 -91 -110 -91v18c46 0 76 22 86 51c-10 -7 -22 -12 -39 -12c-41 0 -62 27 -62 55z" />
    <glyph glyph-name="lcaron" unicode="&#x13e;" horiz-adv-x="337" 
d="M12 0v18h86v713h-86v18h227v-731h86v-18h-313zM324 708c0 28 22 55 59 55c46 0 66 -42 66 -76c0 -48 -41 -91 -110 -91v18c46 0 76 22 86 51c-10 -7 -22 -12 -39 -12c-41 0 -62 27 -62 55z" />
    <glyph glyph-name="Ldot" unicode="&#x13f;" horiz-adv-x="681" 
d="M52 0v18h91v713h-91v18h328v-18h-91v-713h344v189h20v-207h-601zM446 394c0 41 33 74 75 74s75 -33 75 -74s-33 -74 -75 -74s-75 33 -75 74z" />
    <glyph glyph-name="ldot" unicode="&#x140;" horiz-adv-x="436" 
d="M12 0v18h86v713h-86v18h227v-731h86v-18h-313zM310 394c0 41 33 74 75 74s75 -33 75 -74s-33 -74 -75 -74s-75 33 -75 74z" />
    <glyph glyph-name="Nacute" unicode="&#x143;" horiz-adv-x="880" 
d="M52 0v18h91v713h-91v18h211l461 -529v511h-91v18h202v-18h-91v-731h-20l-561 637v-619h91v-18h-202zM399 800l-12 16l152 101l12 -16z" />
    <glyph glyph-name="nacute" unicode="&#x144;" horiz-adv-x="703" 
d="M21 0v18h86v463h-86v18h227v-106c9 26 22 48 41 66c35 34 84 52 135 52c61 0 110 -25 140 -69c24 -35 35 -83 35 -135v-295c50 7 88 57 88 118h20c0 -76 -55 -137 -121 -137c-78 0 -128 61 -128 140v356c-11 2 -23 4 -35 4c-103 0 -172 -80 -175 -179v-296h86v-18h-313z
M336 574l-12 16l152 101l12 -16z" />
    <glyph glyph-name="Ncommaaccent" unicode="&#x145;" horiz-adv-x="880" 
d="M52 0v18h91v713h-91v18h211l461 -529v511h-91v18h202v-18h-91v-731h-20l-561 637v-619h91v-18h-202zM385 -103c0 28 22 55 59 55c46 0 66 -42 66 -76c0 -48 -41 -91 -110 -91v18c46 0 76 22 86 51c-10 -7 -22 -12 -39 -12c-41 0 -62 27 -62 55z" />
    <glyph glyph-name="ncommaaccent" unicode="&#x146;" horiz-adv-x="703" 
d="M21 0v18h86v463h-86v18h227v-106c9 26 22 48 41 66c35 34 84 52 135 52c61 0 110 -25 140 -69c24 -35 35 -83 35 -135v-295c50 7 88 57 88 118h20c0 -76 -55 -137 -121 -137c-78 0 -128 61 -128 140v356c-11 2 -23 4 -35 4c-103 0 -172 -80 -175 -179v-296h86v-18h-313z
M323 -103c0 28 22 55 59 55c46 0 66 -42 66 -76c0 -48 -41 -91 -110 -91v18c46 0 76 22 86 51c-10 -7 -22 -12 -39 -12c-41 0 -62 27 -62 55z" />
    <glyph glyph-name="Ncaron" unicode="&#x147;" horiz-adv-x="880" 
d="M52 0v18h91v713h-91v18h211l461 -529v511h-91v18h202v-18h-91v-731h-20l-561 637v-619h91v-18h-202zM428 794l-126 105l12 14l114 -96l114 96l12 -14z" />
    <glyph glyph-name="ncaron" unicode="&#x148;" horiz-adv-x="703" 
d="M21 0v18h86v463h-86v18h227v-106c9 26 22 48 41 66c35 34 84 52 135 52c61 0 110 -25 140 -69c24 -35 35 -83 35 -135v-295c50 7 88 57 88 118h20c0 -76 -55 -137 -121 -137c-78 0 -128 61 -128 140v356c-11 2 -23 4 -35 4c-103 0 -172 -80 -175 -179v-296h86v-18h-313z
M365 568l-126 105l12 14l114 -96l114 96l12 -14z" />
    <glyph glyph-name="napostrophe" unicode="&#x149;" horiz-adv-x="703" 
d="M21 0v18h86v463h-86v18h227v-106c9 26 22 48 41 66c35 34 84 52 135 52c61 0 110 -25 140 -69c24 -35 35 -83 35 -135v-295c50 7 88 57 88 118h20c0 -76 -55 -137 -121 -137c-78 0 -128 61 -128 140v356c-11 2 -23 4 -35 4c-103 0 -172 -80 -175 -179v-296h86v-18h-313z
M31 708c0 28 22 55 59 55c46 0 66 -42 66 -76c0 -48 -41 -91 -110 -91v18c46 0 76 22 86 51c-10 -7 -22 -12 -39 -12c-41 0 -62 27 -62 55z" />
    <glyph glyph-name="Eng" unicode="&#x14a;" horiz-adv-x="880" 
d="M52 0v18h91v713h-91v18h211l461 -529v511h-91v18h202v-18h-91v-742c0 -132 -83 -204 -178 -204c-69 0 -157 33 -157 103c0 42 32 65 67 65c38 0 66 -29 66 -62c0 -30 -23 -57 -50 -75c23 -9 50 -13 74 -13c85 0 158 66 158 186v11l-561 637v-619h91v-18h-202z" />
    <glyph glyph-name="eng" unicode="&#x14b;" horiz-adv-x="669" 
d="M20 -6v18h86v469h-86v18h227v-107c10 28 25 53 48 73c33 29 76 46 126 46c121 0 177 -95 177 -204v-311c0 -117 -44 -211 -157 -211c-64 0 -120 39 -120 92c0 41 30 62 64 62c36 0 63 -27 63 -60c0 -34 -27 -58 -44 -71c12 -3 24 -5 37 -5c28 0 51 7 70 19
c-11 20 -54 111 -54 220v447c-11 3 -23 4 -36 4c-101 0 -171 -79 -174 -179v-302h86v-18h-313z" />
    <glyph glyph-name="Omacron" unicode="&#x14c;" horiz-adv-x="908" 
d="M54 372c0 215 179 389 400 389s400 -174 400 -389c0 -214 -179 -384 -400 -384s-400 170 -400 384zM224 80c64 -47 143 -74 230 -74c86 0 166 27 230 74v587c-64 47 -144 76 -230 76c-87 0 -166 -29 -230 -76v-587zM343 849v18h210v-18h-210z" />
    <glyph glyph-name="omacron" unicode="&#x14d;" horiz-adv-x="608" 
d="M34 250c0 140 121 261 270 261c148 0 270 -121 270 -261c0 -143 -122 -262 -270 -262c-149 0 -270 119 -270 262zM182 37c36 -20 78 -31 122 -31s86 11 123 32v422c-37 21 -79 33 -123 33s-86 -12 -122 -32v-424zM199 623v18h210v-18h-210z" />
    <glyph glyph-name="Obreve" unicode="&#x14e;" horiz-adv-x="908" 
d="M54 372c0 215 179 389 400 389s400 -174 400 -389c0 -214 -179 -384 -400 -384s-400 170 -400 384zM224 80c64 -47 143 -74 230 -74c86 0 166 27 230 74v587c-64 47 -144 76 -230 76c-87 0 -166 -29 -230 -76v-587zM448 815c-65 0 -117 39 -117 88h20
c0 -39 44 -70 97 -70s97 31 97 70h20c0 -49 -52 -88 -117 -88z" />
    <glyph glyph-name="obreve" unicode="&#x14f;" horiz-adv-x="608" 
d="M34 250c0 140 121 261 270 261c148 0 270 -121 270 -261c0 -143 -122 -262 -270 -262c-149 0 -270 119 -270 262zM182 37c36 -20 78 -31 122 -31s86 11 123 32v422c-37 21 -79 33 -123 33s-86 -12 -122 -32v-424zM304 589c-65 0 -117 39 -117 88h20c0 -39 44 -70 97 -70
s97 31 97 70h20c0 -49 -52 -88 -117 -88z" />
    <glyph glyph-name="Ohungarumlaut" unicode="&#x150;" horiz-adv-x="908" 
d="M54 372c0 215 179 389 400 389s400 -174 400 -389c0 -214 -179 -384 -400 -384s-400 170 -400 384zM224 80c64 -47 143 -74 230 -74c86 0 166 27 230 74v587c-64 47 -144 76 -230 76c-87 0 -166 -29 -230 -76v-587zM359 801l-12 14l127 101l12 -14zM464 801l-12 14
l127 101l12 -14z" />
    <glyph glyph-name="ohungarumlaut" unicode="&#x151;" horiz-adv-x="608" 
d="M34 250c0 140 121 261 270 261c148 0 270 -121 270 -261c0 -143 -122 -262 -270 -262c-149 0 -270 119 -270 262zM182 37c36 -20 78 -31 122 -31s86 11 123 32v422c-37 21 -79 33 -123 33s-86 -12 -122 -32v-424zM215 575l-12 14l127 101l12 -14zM320 575l-12 14l127 101
l12 -14z" />
    <glyph glyph-name="Racute" unicode="&#x154;" horiz-adv-x="797" 
d="M52 0v18h91v713h-91v18h383c145 0 241 -89 241 -202c0 -77 -42 -146 -125 -186c83 -33 116 -97 116 -173v-181c57 8 98 59 98 123h20c0 -79 -56 -142 -134 -142s-135 63 -135 147v216h-227v-333h91v-18h-328zM289 369h227v351c-25 7 -52 11 -81 11h-146v-362zM331 800
l-12 16l152 101l12 -16z" />
    <glyph glyph-name="racute" unicode="&#x155;" horiz-adv-x="472" 
d="M21 0v18h86v463h-86v18h227v-127c8 26 19 51 36 73c30 39 69 66 113 66c45 0 73 -29 73 -65c0 -35 -27 -64 -66 -64c-52 0 -72 54 -78 81c-47 -41 -78 -119 -78 -181v-264h86v-18h-313zM234 574l-12 16l152 101l12 -16z" />
    <glyph glyph-name="Rcommaaccent" unicode="&#x156;" horiz-adv-x="797" 
d="M52 0v18h91v713h-91v18h383c145 0 241 -89 241 -202c0 -77 -42 -146 -125 -186c83 -33 116 -97 116 -173v-181c57 8 98 59 98 123h20c0 -79 -56 -142 -134 -142s-135 63 -135 147v216h-227v-333h91v-18h-328zM289 369h227v351c-25 7 -52 11 -81 11h-146v-362zM344 -103
c0 28 22 55 59 55c46 0 66 -42 66 -76c0 -48 -41 -91 -110 -91v18c46 0 76 22 86 51c-10 -7 -22 -12 -39 -12c-41 0 -62 27 -62 55z" />
    <glyph glyph-name="rcommaaccent" unicode="&#x157;" horiz-adv-x="472" 
d="M21 0v18h86v463h-86v18h227v-127c8 26 19 51 36 73c30 39 69 66 113 66c45 0 73 -29 73 -65c0 -35 -27 -64 -66 -64c-52 0 -72 54 -78 81c-47 -41 -78 -119 -78 -181v-264h86v-18h-313zM117 -103c0 28 22 55 59 55c46 0 66 -42 66 -76c0 -48 -41 -91 -110 -91v18
c46 0 76 22 86 51c-10 -7 -22 -12 -39 -12c-41 0 -62 27 -62 55z" />
    <glyph glyph-name="Rcaron" unicode="&#x158;" horiz-adv-x="797" 
d="M52 0v18h91v713h-91v18h383c145 0 241 -89 241 -202c0 -77 -42 -146 -125 -186c83 -33 116 -97 116 -173v-181c57 8 98 59 98 123h20c0 -79 -56 -142 -134 -142s-135 63 -135 147v216h-227v-333h91v-18h-328zM289 369h227v351c-25 7 -52 11 -81 11h-146v-362zM360 794
l-126 105l12 14l114 -96l114 96l12 -14z" />
    <glyph glyph-name="rcaron" unicode="&#x159;" horiz-adv-x="472" 
d="M21 0v18h86v463h-86v18h227v-127c8 26 19 51 36 73c30 39 69 66 113 66c45 0 73 -29 73 -65c0 -35 -27 -64 -66 -64c-52 0 -72 54 -78 81c-47 -41 -78 -119 -78 -181v-264h86v-18h-313zM263 568l-126 105l12 14l114 -96l114 96l12 -14z" />
    <glyph glyph-name="Sacute" unicode="&#x15a;" horiz-adv-x="653" 
d="M70 0v219h20v-88c9 -12 103 -125 256 -125c91 0 177 41 213 117c-4 10 -16 33 -50 55l-314 199c-88 56 -119 96 -119 169c0 143 118 215 251 215c111 0 183 -49 214 -76v72h20v-194h-20v95c-10 11 -82 85 -214 85c-94 0 -178 -38 -214 -114c3 -9 14 -29 51 -53l314 -201
c76 -49 119 -87 119 -170c0 -138 -120 -217 -250 -217s-221 77 -257 115v-103h-20zM293 800l-12 16l152 101l12 -16z" />
    <glyph glyph-name="sacute" unicode="&#x15b;" horiz-adv-x="485" 
d="M48 0v170h20v-68c9 -13 76 -96 192 -96c54 0 105 19 137 55c-4 7 -13 20 -32 32l-205 131c-77 49 -108 72 -108 132c0 104 92 155 189 155c80 0 133 -35 159 -57v55h20v-156h-20v73c-9 10 -62 67 -160 67c-53 0 -105 -17 -136 -52c5 -9 15 -24 31 -34l215 -138
c66 -42 98 -67 98 -126c0 -99 -90 -155 -188 -155c-97 0 -163 54 -192 85v-73h-20zM212 574l-12 16l152 101l12 -16z" />
    <glyph glyph-name="Scircumflex" unicode="&#x15c;" horiz-adv-x="653" 
d="M70 0v219h20v-88c9 -12 103 -125 256 -125c91 0 177 41 213 117c-4 10 -16 33 -50 55l-314 199c-88 56 -119 96 -119 169c0 143 118 215 251 215c111 0 183 -49 214 -76v72h20v-194h-20v95c-10 11 -82 85 -214 85c-94 0 -178 -38 -214 -114c3 -9 14 -29 51 -53l314 -201
c76 -49 119 -87 119 -170c0 -138 -120 -217 -250 -217s-221 77 -257 115v-103h-20zM208 801l-12 14l126 105l126 -105l-12 -14l-114 95z" />
    <glyph glyph-name="scircumflex" unicode="&#x15d;" horiz-adv-x="485" 
d="M48 0v170h20v-68c9 -13 76 -96 192 -96c54 0 105 19 137 55c-4 7 -13 20 -32 32l-205 131c-77 49 -108 72 -108 132c0 104 92 155 189 155c80 0 133 -35 159 -57v55h20v-156h-20v73c-9 10 -62 67 -160 67c-53 0 -105 -17 -136 -52c5 -9 15 -24 31 -34l215 -138
c66 -42 98 -67 98 -126c0 -99 -90 -155 -188 -155c-97 0 -163 54 -192 85v-73h-20zM127 575l-12 14l126 105l126 -105l-12 -14l-114 95z" />
    <glyph glyph-name="Scedilla" unicode="&#x15e;" horiz-adv-x="653" 
d="M70 0v219h20v-88c9 -12 103 -125 256 -125c91 0 177 41 213 117c-4 10 -16 33 -50 55l-314 199c-88 56 -119 96 -119 169c0 143 118 215 251 215c111 0 183 -49 214 -76v72h20v-194h-20v95c-10 11 -82 85 -214 85c-94 0 -178 -38 -214 -114c3 -9 14 -29 51 -53l314 -201
c76 -49 119 -87 119 -170c0 -138 -120 -217 -250 -217h-5l-23 -64c44 -3 77 -21 77 -65c0 -48 -42 -74 -87 -74c-17 0 -35 3 -50 10l8 16c13 -5 27 -8 42 -8c35 0 67 20 67 56c0 34 -37 47 -83 47l32 83c-118 8 -201 78 -235 114v-103h-20z" />
    <glyph glyph-name="scedilla" unicode="&#x15f;" horiz-adv-x="485" 
d="M48 0v170h20v-68c9 -13 76 -96 192 -96c54 0 105 19 137 55c-4 7 -13 20 -32 32l-205 131c-77 49 -108 72 -108 132c0 104 92 155 189 155c80 0 133 -35 159 -57v55h20v-156h-20v73c-9 10 -62 67 -160 67c-53 0 -105 -17 -136 -52c5 -9 15 -24 31 -34l215 -138
c66 -42 98 -67 98 -126c0 -99 -90 -155 -188 -155h-6l-23 -64c44 -3 77 -21 77 -65c0 -48 -42 -74 -87 -74c-17 0 -35 3 -50 10l8 16c13 -5 27 -8 42 -8c35 0 67 20 67 56c0 34 -37 47 -83 47l32 83c-85 8 -143 55 -169 84v-73h-20z" />
    <glyph glyph-name="Scommaaccent" unicode="&#x218;" horiz-adv-x="653" 
d="M70 0v219h20v-88c9 -12 103 -125 256 -125c91 0 177 41 213 117c-4 10 -16 33 -50 55l-314 199c-88 56 -119 96 -119 169c0 143 118 215 251 215c111 0 183 -49 214 -76v72h20v-194h-20v95c-10 11 -82 85 -214 85c-94 0 -178 -38 -214 -114c3 -9 14 -29 51 -53l314 -201
c76 -49 119 -87 119 -170c0 -138 -120 -217 -250 -217s-221 77 -257 115v-103h-20zM256 -103c0 28 22 55 59 55c46 0 66 -42 66 -76c0 -48 -41 -91 -110 -91v18c46 0 76 22 86 51c-10 -7 -22 -12 -39 -12c-41 0 -62 27 -62 55z" />
    <glyph glyph-name="scommaaccent" unicode="&#x219;" horiz-adv-x="485" 
d="M48 0v170h20v-68c9 -13 76 -96 192 -96c54 0 105 19 137 55c-4 7 -13 20 -32 32l-205 131c-77 49 -108 72 -108 132c0 104 92 155 189 155c80 0 133 -35 159 -57v55h20v-156h-20v73c-9 10 -62 67 -160 67c-53 0 -105 -17 -136 -52c5 -9 15 -24 31 -34l215 -138
c66 -42 98 -67 98 -126c0 -99 -90 -155 -188 -155c-97 0 -163 54 -192 85v-73h-20zM183 -103c0 28 22 55 59 55c46 0 66 -42 66 -76c0 -48 -41 -91 -110 -91v18c46 0 76 22 86 51c-10 -7 -22 -12 -39 -12c-41 0 -62 27 -62 55z" />
    <glyph glyph-name="Tcommaaccent" unicode="&#x162;" horiz-adv-x="743" 
d="M207 0v18h91v713h-253v-168h-20v186h693v-186h-20v168h-254v-713h91v-18h-156l-23 -64c44 -3 77 -21 77 -65c0 -48 -42 -74 -87 -74c-17 0 -35 3 -50 10l8 16c13 -5 27 -8 42 -8c35 0 67 20 67 56c0 34 -37 47 -83 47l31 82h-154z" />
    <glyph glyph-name="tcommaaccent" unicode="&#x163;" horiz-adv-x="387" 
d="M95 133v348h-93v18h93v87l141 102v-189h134v-18h-134v-470c59 1 108 54 108 119h20c0 -76 -58 -137 -131 -137h-1l-21 -57c44 -3 77 -21 77 -65c0 -48 -42 -74 -87 -74c-17 0 -35 3 -50 10l8 16c13 -5 27 -8 42 -8c35 0 67 20 67 56c0 34 -37 47 -83 47l29 76
c-73 8 -119 66 -119 139z" />
    <glyph glyph-name="Tcaron" unicode="&#x164;" horiz-adv-x="743" 
d="M207 0v18h91v713h-253v-168h-20v186h693v-186h-20v168h-254v-713h91v-18h-328zM366 794l-126 105l12 14l114 -96l114 96l12 -14z" />
    <glyph glyph-name="tcaron" unicode="&#x165;" horiz-adv-x="386" 
d="M94 133v348h-93v18h93v87l141 102v-189h134v-18h-134v-470c59 1 108 54 108 119h20c0 -76 -58 -137 -131 -137c-84 0 -138 61 -138 140zM333 708c0 28 22 55 59 55c46 0 66 -42 66 -76c0 -48 -41 -91 -110 -91v18c46 0 76 22 86 51c-10 -7 -22 -12 -39 -12
c-41 0 -62 27 -62 55z" />
    <glyph glyph-name="Tbar" unicode="&#x166;" horiz-adv-x="743" 
d="M207 0v18h91v343h-213v18h213v352h-253v-168h-20v186h693v-186h-20v168h-254v-352h213v-18h-213v-343h91v-18h-328z" />
    <glyph glyph-name="tbar" unicode="&#x167;" horiz-adv-x="410" 
d="M107 133v239h-93v18h93v91h-93v18h93v87l141 102v-189h134v-18h-134v-91h134v-18h-134v-361c59 1 108 54 108 119h20c0 -76 -58 -137 -131 -137c-84 0 -138 61 -138 140z" />
    <glyph glyph-name="uni021A" unicode="&#x21a;" horiz-adv-x="743" 
d="M207 0v18h91v713h-253v-168h-20v186h693v-186h-20v168h-254v-713h91v-18h-328zM304 -103c0 28 22 55 59 55c46 0 66 -42 66 -76c0 -48 -41 -91 -110 -91v18c46 0 76 22 86 51c-10 -7 -22 -12 -39 -12c-41 0 -62 27 -62 55z" />
    <glyph glyph-name="uni021B" unicode="&#x21b;" horiz-adv-x="386" 
d="M94 133v348h-93v18h93v87l141 102v-189h134v-18h-134v-470c59 1 108 54 108 119h20c0 -76 -58 -137 -131 -137c-84 0 -138 61 -138 140zM161 -103c0 28 22 55 59 55c46 0 66 -42 66 -76c0 -48 -41 -91 -110 -91v18c46 0 76 22 86 51c-10 -7 -22 -12 -39 -12
c-41 0 -62 27 -62 55z" />
    <glyph glyph-name="Utilde" unicode="&#x168;" horiz-adv-x="850" 
d="M263 47c48 -28 107 -41 170 -41c153 0 280 89 280 282v443h-91v18h202v-18h-91v-443c0 -205 -137 -300 -300 -300c-172 0 -316 95 -316 300v443h-91v18h328v-18h-91v-684zM285 823c0 51 32 92 81 92c36 0 55 -21 76 -44c17 -20 34 -39 63 -39c37 0 61 33 61 74h20
c0 -51 -32 -92 -81 -92c-37 0 -57 22 -77 45c-17 19 -34 38 -62 38c-37 0 -61 -33 -61 -74h-20z" />
    <glyph glyph-name="utilde" unicode="&#x169;" horiz-adv-x="697" 
d="M88 195v286h-86v18h227v-489c11 -3 24 -4 38 -4c102 0 172 85 172 191v284h-86v18h227v-487c50 7 88 57 88 118h20c0 -76 -55 -137 -121 -137c-71 0 -119 50 -127 119c-10 -32 -27 -60 -52 -81c-32 -27 -73 -43 -121 -43c-120 0 -179 91 -179 207zM177 597
c0 51 32 92 81 92c36 0 55 -21 76 -44c17 -20 34 -39 63 -39c37 0 61 33 61 74h20c0 -51 -32 -92 -81 -92c-37 0 -57 22 -77 45c-17 19 -34 38 -62 38c-37 0 -61 -33 -61 -74h-20z" />
    <glyph glyph-name="Umacron" unicode="&#x16a;" horiz-adv-x="850" 
d="M263 47c48 -28 107 -41 170 -41c153 0 280 89 280 282v443h-91v18h202v-18h-91v-443c0 -205 -137 -300 -300 -300c-172 0 -316 95 -316 300v443h-91v18h328v-18h-91v-684zM330 849v18h210v-18h-210z" />
    <glyph glyph-name="umacron" unicode="&#x16b;" horiz-adv-x="697" 
d="M88 195v286h-86v18h227v-489c11 -3 24 -4 38 -4c102 0 172 85 172 191v284h-86v18h227v-487c50 7 88 57 88 118h20c0 -76 -55 -137 -121 -137c-71 0 -119 50 -127 119c-10 -32 -27 -60 -52 -81c-32 -27 -73 -43 -121 -43c-120 0 -179 91 -179 207zM222 623v18h210v-18
h-210z" />
    <glyph glyph-name="Ubreve" unicode="&#x16c;" horiz-adv-x="850" 
d="M263 47c48 -28 107 -41 170 -41c153 0 280 89 280 282v443h-91v18h202v-18h-91v-443c0 -205 -137 -300 -300 -300c-172 0 -316 95 -316 300v443h-91v18h328v-18h-91v-684zM435 815c-65 0 -117 39 -117 88h20c0 -39 44 -70 97 -70s97 31 97 70h20c0 -49 -52 -88 -117 -88z
" />
    <glyph glyph-name="ubreve" unicode="&#x16d;" horiz-adv-x="697" 
d="M88 195v286h-86v18h227v-489c11 -3 24 -4 38 -4c102 0 172 85 172 191v284h-86v18h227v-487c50 7 88 57 88 118h20c0 -76 -55 -137 -121 -137c-71 0 -119 50 -127 119c-10 -32 -27 -60 -52 -81c-32 -27 -73 -43 -121 -43c-120 0 -179 91 -179 207zM327 589
c-65 0 -117 39 -117 88h20c0 -39 44 -70 97 -70s97 31 97 70h20c0 -49 -52 -88 -117 -88z" />
    <glyph glyph-name="Uring" unicode="&#x16e;" horiz-adv-x="850" 
d="M263 47c48 -28 107 -41 170 -41c153 0 280 89 280 282v443h-91v18h202v-18h-91v-443c0 -205 -137 -300 -300 -300c-172 0 -316 95 -316 300v443h-91v18h328v-18h-91v-684zM435 743c-50 0 -92 41 -92 91s42 91 92 91s92 -41 92 -91s-42 -91 -92 -91zM435 761
c40 0 72 33 72 73s-32 73 -72 73s-72 -33 -72 -73s32 -73 72 -73z" />
    <glyph glyph-name="uring" unicode="&#x16f;" horiz-adv-x="697" 
d="M88 195v286h-86v18h227v-489c11 -3 24 -4 38 -4c102 0 172 85 172 191v284h-86v18h227v-487c50 7 88 57 88 118h20c0 -76 -55 -137 -121 -137c-71 0 -119 50 -127 119c-10 -32 -27 -60 -52 -81c-32 -27 -73 -43 -121 -43c-120 0 -179 91 -179 207zM327 517
c-50 0 -92 41 -92 91s42 91 92 91s92 -41 92 -91s-42 -91 -92 -91zM327 535c40 0 72 33 72 73s-32 73 -72 73s-72 -33 -72 -73s32 -73 72 -73z" />
    <glyph glyph-name="Uhungarumlaut" unicode="&#x170;" horiz-adv-x="850" 
d="M263 47c48 -28 107 -41 170 -41c153 0 280 89 280 282v443h-91v18h202v-18h-91v-443c0 -205 -137 -300 -300 -300c-172 0 -316 95 -316 300v443h-91v18h328v-18h-91v-684zM346 801l-12 14l127 101l12 -14zM451 801l-12 14l127 101l12 -14z" />
    <glyph glyph-name="uhungarumlaut" unicode="&#x171;" horiz-adv-x="697" 
d="M88 195v286h-86v18h227v-489c11 -3 24 -4 38 -4c102 0 172 85 172 191v284h-86v18h227v-487c50 7 88 57 88 118h20c0 -76 -55 -137 -121 -137c-71 0 -119 50 -127 119c-10 -32 -27 -60 -52 -81c-32 -27 -73 -43 -121 -43c-120 0 -179 91 -179 207zM238 575l-12 14
l127 101l12 -14zM343 575l-12 14l127 101l12 -14z" />
    <glyph glyph-name="Uogonek" unicode="&#x172;" horiz-adv-x="850" 
d="M263 47c48 -28 107 -41 170 -41c153 0 280 89 280 282v443h-91v18h202v-18h-91v-443c0 -162 -85 -255 -201 -287c0 0 -97 -63 -97 -134c0 -36 25 -64 85 -64v-18c-74 0 -105 36 -105 82c0 52 44 98 75 125c-18 -3 -38 -4 -57 -4c-172 0 -316 95 -316 300v443h-91v18h328
v-18h-91v-684z" />
    <glyph glyph-name="uogonek" unicode="&#x173;" horiz-adv-x="697" 
d="M88 195v286h-86v18h227v-489c11 -3 24 -4 38 -4c102 0 172 85 172 191v284h-86v18h227v-487c50 7 88 57 88 118h20c0 -61 -35 -111 -82 -130c-6 -3 -96 -64 -96 -133c0 -36 25 -64 85 -64v-18c-74 0 -105 36 -105 82c0 53 45 100 76 126c-70 0 -118 50 -126 119
c-10 -32 -27 -60 -52 -81c-32 -27 -73 -43 -121 -43c-120 0 -179 91 -179 207z" />
    <glyph glyph-name="Wcircumflex" unicode="&#x174;" horiz-adv-x="1054" 
d="M363 -6l-326 737h-60v18h793v-18h-76l-84 -212l147 -343l227 555h-97v18h192v-18h-75l-301 -737h-20l-155 351l-145 -351h-20zM437 175l80 194l-160 362h-158zM599 544l75 187h-155zM422 801l-12 14l126 105l126 -105l-12 -14l-114 95z" />
    <glyph glyph-name="wcircumflex" unicode="&#x175;" horiz-adv-x="899" 
d="M271 -6l-234 487h-53v18h289v-18h-82l147 -318l97 237l-39 81h-63v18h289v-18h-72l147 -318l131 318h-96v18h182v-18h-66l-200 -487h-18l-184 383l-157 -383h-18zM353 575l-12 14l126 105l126 -105l-12 -14l-114 95z" />
    <glyph glyph-name="Ycircumflex" unicode="&#x176;" horiz-adv-x="730" 
d="M211 0v18h90v318l-272 395h-58v18h333v-18h-104l236 -344l210 344h-100v18h202v-18h-78l-223 -366v-347h92v-18h-328zM261 801l-12 14l126 105l126 -105l-12 -14l-114 95z" />
    <glyph glyph-name="ycircumflex" unicode="&#x177;" horiz-adv-x="544" 
d="M64 -61c37 0 64 -27 64 -60c0 -34 -29 -58 -48 -71c10 -3 21 -5 32 -5c62 0 104 55 141 144l24 58l-243 476h-50v18h289v-18h-84l157 -308l127 308h-96v18h182v-18h-66l-222 -540c-39 -95 -88 -156 -159 -156c-57 0 -111 39 -111 92c0 41 30 62 63 62zM176 575l-12 14
l126 105l126 -105l-12 -14l-114 95z" />
    <glyph glyph-name="Zacute" unicode="&#x179;" horiz-adv-x="729" 
d="M48 0v17l452 714h-416v-170h-20v188h606v-17l-452 -714h432v175h20v-193h-622zM314 800l-12 16l152 101l12 -16z" />
    <glyph glyph-name="zacute" unicode="&#x17a;" horiz-adv-x="535" 
d="M21 0v15l310 466h-257v-120h-20v138h443v-15l-312 -466h288v133h20v-151h-472zM247 574l-12 16l152 101l12 -16z" />
    <glyph glyph-name="Zdotaccent" unicode="&#x17b;" horiz-adv-x="729" 
d="M48 0v17l452 714h-416v-170h-20v188h606v-17l-452 -714h432v175h20v-193h-622zM343 799c-37 0 -70 32 -70 69s33 69 70 69s70 -32 70 -69s-33 -69 -70 -69z" />
    <glyph glyph-name="zdotaccent" unicode="&#x17c;" horiz-adv-x="535" 
d="M21 0v15l310 466h-257v-120h-20v138h443v-15l-312 -466h288v133h20v-151h-472zM276 573c-37 0 -70 32 -70 69s33 69 70 69s70 -32 70 -69s-33 -69 -70 -69z" />
    <glyph glyph-name="longs" unicode="&#x17f;" horiz-adv-x="343" 
d="M18 0v18h86v463h-81v18h81v63c0 51 10 91 33 125c30 45 81 74 151 74c73 0 160 -32 160 -98c0 -40 -31 -63 -62 -63c-34 0 -64 27 -64 61c0 32 25 57 42 69c-24 9 -51 13 -75 13c-16 0 -31 -2 -44 -5v-720h86v-18h-313z" />
    <glyph glyph-name="i_t" horiz-adv-x="727" 
d="M435 133v348h-93v18h93v89l120 85c-10 67 -103 102 -195 102c-116 0 -233 -40 -233 -120c0 -27 23 -51 50 -51s50 24 50 51c0 14 -5 26 -14 35l14 12c13 -13 20 -29 20 -47c0 -37 -33 -69 -70 -69s-70 32 -70 69c0 92 127 138 253 138c108 0 216 -45 216 -132v-162h134
v-18h-134v-470c59 1 108 54 108 119h20c0 -76 -58 -137 -131 -137c-84 0 -138 61 -138 140zM21 0v18h86v463h-86v18h227v-481h86v-18h-313z" />
    <glyph glyph-name="c_k" horiz-adv-x="1172" 
d="M183 29c30 -15 64 -23 102 -23c150 0 195 135 195 135l18 -6s-49 -147 -213 -147c-146 0 -250 117 -250 260c0 149 117 263 255 263c15 0 31 -2 47 -4v13c0 106 56 229 218 229h209v-516l259 248h-89v18h192v-18h-74l-139 -132l191 -314c24 22 39 56 39 95h20
c0 -71 -48 -137 -125 -137c-39 0 -88 16 -120 74l-105 186l-49 -47v-188h86v-18h-313v18h86v713h-68c-148 0 -198 -113 -198 -210v-18c68 -16 133 -53 133 -104c0 -28 -20 -49 -51 -49c-52 0 -92 61 -100 138c-17 3 -33 5 -48 5c-39 0 -76 -10 -108 -27v-437zM439 368
c21 0 31 15 31 32c0 40 -53 70 -111 84c9 -65 40 -116 80 -116z" />
    <glyph glyph-name="s_p" horiz-adv-x="1133" 
d="M48 0v170h20v-68c9 -13 76 -96 192 -96c54 0 105 19 136 54c-3 7 -12 20 -31 33l-205 131c-77 49 -108 72 -108 132c0 104 92 155 189 155c26 0 54 -4 81 -10c28 130 142 250 273 250c114 0 165 -65 165 -129c0 -31 -11 -66 -36 -92v-134c9 26 23 49 43 68
c32 29 75 47 125 47c129 0 203 -117 203 -260c0 -164 -99 -263 -211 -263c-52 0 -97 21 -130 55c-13 14 -23 30 -30 48v-276h86v-18h-313v18h86v666h-86v18h96c104 0 147 66 147 123c0 55 -45 111 -145 111c-123 0 -229 -113 -254 -238c59 -18 108 -51 108 -96
c0 -37 -31 -62 -64 -62c-47 0 -69 45 -69 106c0 13 1 26 3 40c-26 6 -53 10 -78 10c-53 0 -104 -17 -136 -51c4 -10 13 -25 30 -35l215 -138c66 -42 98 -67 98 -126c0 -99 -90 -155 -188 -155c-97 0 -163 54 -192 85v-73h-20zM724 164c3 -89 73 -158 160 -158
c19 0 39 4 57 10v470c-15 4 -32 7 -49 7c-99 0 -165 -77 -168 -176v-153zM385 355c23 0 44 17 44 44c0 36 -41 63 -91 79c-1 -12 -2 -24 -2 -35c0 -51 16 -88 49 -88z" />
    <glyph glyph-name="c_b" horiz-adv-x="1148" 
d="M183 29c30 -15 65 -23 103 -23c149 0 194 135 194 135l18 -6s-49 -147 -212 -147c-147 0 -251 117 -251 258c0 151 116 265 256 265c14 0 30 -2 46 -4v12c0 108 57 230 218 230h189v-348c9 26 22 48 41 66c30 28 71 44 122 44c126 0 203 -117 203 -264
s-88 -259 -217 -259c-61 0 -101 16 -135 35c-25 12 -46 23 -69 23c-24 0 -51 -14 -67 -46h-19v731h-48c-147 0 -198 -112 -198 -212v-16c68 -16 133 -53 133 -102c0 -30 -20 -51 -50 -51c-53 0 -93 61 -102 138c-16 3 -32 5 -47 5c-39 0 -76 -10 -108 -27v-437zM744 50
c8 -3 15 -7 24 -11c32 -18 70 -33 125 -33c23 0 44 4 64 11v468c-16 5 -32 8 -50 8c-105 0 -161 -79 -163 -182v-261zM440 368c18 0 30 13 30 33c0 39 -53 69 -111 83c8 -65 40 -116 81 -116z" />
    <glyph glyph-name="c_h" horiz-adv-x="1218" 
d="M183 30c30 -15 65 -24 103 -24c149 0 194 135 194 135l18 -6s-49 -147 -212 -147c-147 0 -251 117 -251 261c0 148 116 262 256 262c14 0 30 -2 46 -4v12c0 108 57 230 218 230h209v-356c9 27 24 51 45 70c33 30 78 48 130 48c120 0 176 -96 176 -204v-295
c51 9 88 58 88 118h20c0 -76 -52 -137 -124 -137c-73 0 -125 61 -125 140v356c-11 3 -23 4 -35 4c-102 0 -172 -79 -175 -179v-296h86v-18h-313v18h86v713h-68c-147 0 -198 -112 -198 -212v-16c68 -16 133 -53 133 -102c0 -30 -20 -51 -50 -51c-53 0 -93 61 -102 138
c-16 3 -32 5 -47 5c-39 0 -76 -10 -108 -27v-436zM440 368c18 0 30 13 30 33c0 39 -53 69 -111 83c8 -65 40 -116 81 -116z" />
    <glyph glyph-name="c_p" horiz-adv-x="1173" 
d="M183 30c30 -15 65 -24 103 -24c149 0 194 135 194 135l18 -6s-49 -147 -212 -147c-147 0 -251 117 -251 258c0 151 116 265 256 265c23 0 48 -3 73 -9c28 129 142 247 273 247c112 0 163 -65 163 -129c0 -31 -11 -65 -36 -91v-132c8 22 19 43 36 60c33 34 78 54 132 54
c129 0 203 -117 203 -257c0 -167 -99 -266 -211 -266c-50 0 -96 20 -128 53c-15 14 -25 31 -32 50v-276h86v-18h-313v18h86v665h-86v18h96c104 0 147 65 147 122c0 55 -45 111 -143 111c-123 0 -229 -112 -254 -235c58 -18 107 -52 107 -99c0 -37 -31 -62 -64 -62
c-47 0 -69 45 -69 106c0 14 1 29 3 43c-23 5 -47 9 -69 9c-39 0 -76 -10 -108 -27v-436zM764 171c0 -92 71 -165 160 -165c19 0 39 4 57 10v470c-15 4 -32 7 -49 7c-101 0 -168 -81 -168 -185v-137zM426 353c23 0 44 17 44 44c0 38 -41 66 -90 82c-2 -13 -3 -26 -3 -38
c0 -51 16 -88 49 -88z" />
    <glyph glyph-name="s_b" horiz-adv-x="1108" 
d="M48 0v170h20v-68c9 -13 76 -96 192 -96c54 0 105 19 136 54c-3 7 -12 20 -31 33l-205 131c-77 49 -108 72 -108 132c0 104 92 155 190 155c17 0 35 -2 53 -5v15c0 108 57 228 218 228h191v-348c9 26 22 48 41 66c30 28 71 44 122 44c126 0 203 -117 203 -264
s-88 -259 -217 -259c-61 0 -101 16 -135 35c-25 12 -46 23 -69 23c-24 0 -51 -14 -67 -46h-19v731h-50c-147 0 -198 -110 -198 -210v-19c69 -16 133 -52 133 -99c0 -30 -20 -51 -50 -51c-53 0 -92 60 -101 136c-19 3 -38 5 -55 5c-54 0 -105 -17 -137 -51
c4 -9 13 -25 30 -35l215 -138c66 -42 98 -67 98 -126c0 -99 -90 -155 -188 -155c-97 0 -163 54 -192 85v-73h-20zM704 50c8 -3 15 -7 24 -11c32 -18 70 -33 125 -33c23 0 44 4 64 11v468c-16 5 -32 8 -50 8c-105 0 -161 -79 -163 -182v-261zM398 370c18 0 30 13 30 33
c0 38 -52 67 -111 81c9 -64 40 -114 81 -114z" />
    <glyph glyph-name="s_h" horiz-adv-x="1180" 
d="M48 0v170h20v-68c9 -13 76 -96 192 -96c54 0 105 19 136 54c-3 7 -12 20 -31 33l-205 131c-77 49 -108 72 -108 132c0 104 92 155 190 155c17 0 35 -2 53 -5v15c0 108 57 228 218 228h212v-356c9 26 22 48 41 66c35 34 84 52 135 52c61 0 110 -25 140 -69
c24 -35 35 -83 35 -135v-295c51 9 88 58 88 118h20c0 -76 -52 -137 -124 -137c-73 0 -125 61 -125 140v356c-11 2 -23 4 -35 4c-103 0 -172 -80 -175 -179v-296h86v-18h-313v18h86v713h-71c-147 0 -198 -110 -198 -210v-19c69 -16 133 -52 133 -99c0 -30 -20 -51 -50 -51
c-53 0 -92 60 -101 136c-19 3 -38 5 -55 5c-54 0 -105 -17 -137 -51c4 -9 13 -25 30 -35l215 -138c66 -42 98 -67 98 -126c0 -99 -90 -155 -188 -155c-97 0 -163 54 -192 85v-73h-20zM398 370c18 0 30 13 30 33c0 38 -52 67 -111 81c9 -64 40 -114 81 -114z" />
    <glyph glyph-name="s_k" horiz-adv-x="1132" 
d="M48 0v170h20v-68c9 -13 76 -96 192 -96c54 0 105 19 136 54c-3 7 -12 20 -31 33l-205 131c-77 49 -108 72 -108 132c0 104 92 155 190 155c17 0 35 -2 53 -5v15c0 108 57 228 218 228h211v-516l259 248h-89v18h192v-18h-74l-139 -132l191 -314c24 22 39 56 39 95h20
c0 -71 -48 -137 -125 -137c-39 0 -88 16 -120 74l-105 186l-49 -47v-188h86v-18h-313v18h86v713h-70c-147 0 -198 -110 -198 -210v-19c69 -16 133 -52 133 -99c0 -30 -20 -51 -50 -51c-53 0 -92 60 -101 136c-19 3 -38 5 -55 5c-54 0 -105 -17 -137 -51c4 -9 13 -25 30 -35
l215 -138c66 -42 98 -67 98 -126c0 -99 -90 -155 -188 -155c-97 0 -163 54 -192 85v-73h-20zM398 370c18 0 30 13 30 33c0 38 -52 67 -111 81c9 -64 40 -114 81 -114z" />
    <glyph glyph-name="st" unicode="&#xfb06;" horiz-adv-x="872" 
d="M48 0v170h20v-68c9 -13 76 -96 192 -96c54 0 105 19 136 54c-3 7 -12 20 -31 33l-205 131c-77 49 -108 72 -108 132c0 104 92 155 190 155c17 0 36 -2 54 -5v18c0 157 114 263 263 263c97 0 162 -48 162 -128v-160h134v-18h-134v-470c59 1 108 54 108 119h20
c0 -76 -58 -137 -131 -137c-84 0 -138 61 -138 140v348h-93v18h93v87l120 85c-6 61 -61 98 -141 98c-137 0 -243 -98 -243 -245c0 -8 0 -15 1 -22c68 -16 131 -52 131 -99c0 -30 -20 -51 -50 -51c-52 0 -90 59 -100 136c-19 3 -38 5 -56 5c-54 0 -105 -17 -137 -51
c4 -9 13 -25 30 -35l215 -138c66 -42 98 -67 98 -126c0 -99 -90 -155 -188 -155c-97 0 -163 54 -192 85v-73h-20zM398 370c18 0 30 13 30 33c0 37 -52 66 -110 80c9 -65 41 -113 80 -113z" />
    <glyph glyph-name="ct" horiz-adv-x="912" 
d="M183 29c30 -15 65 -23 103 -23c149 0 194 135 194 135l18 -6s-49 -147 -212 -147c-147 0 -251 117 -251 261c0 148 116 262 255 262c15 0 31 -2 47 -4v16c0 158 108 264 245 264c108 0 179 -48 179 -128v-160h134v-18h-134v-470c59 1 108 54 108 119h20
c0 -76 -58 -137 -131 -137c-84 0 -138 61 -138 140v348h-93v18h93v87l120 85c-7 61 -68 98 -158 98c-125 0 -225 -98 -225 -246v-20c68 -16 133 -53 133 -103c0 -28 -19 -50 -51 -50c-52 0 -91 59 -100 139c-17 3 -34 4 -49 4c-39 0 -75 -10 -107 -27v-437zM439 368
c20 0 31 14 31 32c0 40 -53 70 -111 84c9 -67 40 -116 80 -116z" />
    <glyph glyph-name="A.swsh" horiz-adv-x="935" 
d="M24 -94c0 0 32 -24 82 -24c69 0 109 41 133 100l96 232h-58c-134 0 -245 75 -245 210c0 124 95 216 215 216v-18c-108 0 -195 -84 -195 -198c0 -123 101 -192 225 -192h65l215 520h18l320 -734h60v-18h-307v18h91l-84 196h-300l-98 -238c-28 -67 -73 -112 -150 -112
c-60 0 -95 28 -95 28zM363 232h285l-145 340z" />
    <glyph glyph-name="B.swsh" horiz-adv-x="1065" 
d="M269 -82c0 65 50 100 115 100h66v713h-112c-156 0 -283 -84 -283 -243c0 -135 110 -245 244 -245v-18c-146 0 -264 118 -264 263c0 171 137 261 303 261h419c145 0 231 -85 231 -185c0 -79 -57 -136 -128 -165c87 -37 138 -109 138 -190c0 -113 -87 -209 -241 -209h-287
v-67c0 -64 -36 -114 -101 -114c-56 0 -100 44 -100 99zM596 18h161c24 0 46 2 66 7v366h-227v-373zM596 409h227v315c-20 4 -42 7 -66 7h-161v-322zM289 -82c0 -45 36 -81 80 -81c53 0 81 42 81 96v67h-66c-53 0 -95 -29 -95 -82z" />
    <glyph glyph-name="C.swsh" horiz-adv-x="795" 
d="M241 5c57 -46 127 -74 209 -74c208 0 272 180 272 180l18 -6s-68 -192 -290 -192c-228 0 -378 200 -378 451c0 249 151 429 377 429c169 0 283 -96 283 -209c0 -67 -54 -121 -122 -121s-122 54 -122 121h20c0 -57 46 -103 102 -103s102 46 102 103
c0 103 -106 191 -263 191c-81 0 -152 -25 -208 -68v-702z" />
    <glyph glyph-name="D.swsh" horiz-adv-x="1129" 
d="M230 -82c0 65 50 100 115 100h66v713h-117c-134 0 -244 -72 -244 -210c0 -115 95 -210 210 -210v-18c-125 0 -230 103 -230 228c0 150 118 228 264 228h387c230 0 392 -168 392 -371c0 -210 -162 -378 -392 -378h-250v-67c0 -64 -36 -114 -101 -114
c-56 0 -100 44 -100 99zM557 18h124c87 0 164 25 225 69v575c-61 43 -138 69 -225 69h-124v-713zM250 -82c0 -45 36 -81 80 -81c53 0 81 42 81 96v67h-66c-53 0 -95 -29 -95 -82z" />
    <glyph glyph-name="E.swsh" horiz-adv-x="1025" 
d="M359 0v18h91v713h-112c-156 0 -283 -84 -283 -244c0 -134 110 -244 244 -244v-18c-146 0 -264 118 -264 262c0 172 137 262 303 262h576c45 0 81 24 81 70c0 39 -32 70 -70 70v18c50 0 90 -39 90 -88c0 -58 -46 -88 -101 -88h-318v-332h241v106h20v-226h-20v102h-241
v-363h359v169h20v-187h-616z" />
    <glyph glyph-name="F.swsh" horiz-adv-x="896" 
d="M238 -46h20c0 -67 47 -119 114 -122v899h-105c-121 0 -220 -65 -220 -189c0 -104 85 -189 189 -189v-18c-116 0 -209 93 -209 207c0 136 107 207 240 207h559c45 0 81 24 81 70c0 39 -32 70 -70 70v18c50 0 90 -39 90 -88c0 -58 -46 -88 -101 -88h-308v-332h241v106h20
v-226h-20v102h-241v-408c0 -88 -47 -159 -140 -159c-82 0 -140 61 -140 140z" />
    <glyph glyph-name="G.swsh" horiz-adv-x="866" 
d="M92 19l20 -4c-20 -110 113 -212 312 -212c65 0 126 13 174 35v209c-23 -4 -80 -13 -140 -13c-254 0 -402 169 -402 374c0 225 173 384 409 384c186 0 310 -98 310 -203c0 -66 -49 -113 -111 -113c-63 0 -112 49 -112 110h20c0 -51 41 -92 92 -92c50 0 91 39 91 95
c0 95 -116 185 -290 185c-93 0 -175 -26 -240 -72v-585c61 -41 139 -65 233 -65c59 0 120 10 140 13v208h-134v18h366v-18h-86v-231c0 -83 -25 -147 -94 -196c-54 -38 -135 -61 -226 -61c-213 0 -354 112 -332 234z" />
    <glyph glyph-name="H.swsh" horiz-adv-x="1040" 
d="M92 113h20c0 -67 47 -119 114 -122v740h-95c-45 0 -81 -24 -81 -70c0 -39 31 -70 70 -70v-18c-50 0 -90 39 -90 88c0 58 46 88 101 88h284v-18h-43v-345h379v345h-91v18h328v-18h-91v-713h91v-18h-328v18h91v350h-379v-236c0 -88 -47 -159 -140 -159
c-82 0 -140 61 -140 140z" />
    <glyph glyph-name="I.swsh" horiz-adv-x="495" 
d="M121 0v18h91v713h-95c-45 0 -81 -24 -81 -70c0 -39 31 -70 70 -70v-18c-50 0 -90 39 -90 88c0 58 46 88 101 88h284v-18h-43v-713h91v-18h-328z" />
    <glyph glyph-name="J.swsh" horiz-adv-x="498" 
d="M1 -12h20c0 -78 73 -156 165 -156c15 0 29 2 42 5v894h-119c-45 0 -81 -24 -81 -70c0 -39 31 -70 70 -70v-18c-50 0 -90 39 -90 88c0 58 46 88 101 88h313v-18h-48v-704c0 -118 -64 -213 -188 -213c-104 0 -185 86 -185 174z" />
    <glyph glyph-name="K.swsh" horiz-adv-x="1042" 
d="M281 0v18h91v713h-106c-120 0 -219 -66 -219 -184c0 -109 85 -192 188 -192v-18c-114 0 -208 90 -208 211c0 128 106 201 239 201h273v-18h-21v-369l357 369h-103v18h202v-18h-73l-232 -240l279 -463c34 22 56 63 56 112h20c0 -81 -56 -147 -134 -147c-24 0 -48 6 -70 17
c-24 12 -46 32 -64 63l-185 318l-53 -55v-318h91v-18h-328z" />
    <glyph glyph-name="L.swsh" horiz-adv-x="808" 
d="M100 -33c0 48 37 86 87 86c20 0 42 -7 67 -18v696h-144c-45 0 -81 -25 -81 -69c0 -41 31 -71 70 -71v-18c-50 0 -90 38 -90 89c0 56 46 87 101 87h333v-18h-43v-784l5 -3c91 -61 196 -129 283 -129s140 65 140 123h20c0 -66 -61 -141 -160 -141c-94 0 -200 69 -295 133
c-43 29 -83 56 -119 76v-27c0 -54 -29 -98 -87 -98c-49 0 -87 38 -87 86zM120 -33c0 -38 30 -68 67 -68c44 0 67 36 67 80v37c-25 12 -48 19 -67 19c-38 0 -67 -30 -67 -68z" />
    <glyph glyph-name="M.swsh" horiz-adv-x="1370" 
d="M374 0v18h91v713h-10h-116c-156 0 -284 -83 -284 -243c0 -135 110 -245 244 -245v-18c-146 0 -264 118 -264 263c0 172 136 261 304 261h116c124 0 154 -39 183 -104l203 -458l227 562h238v-18h-91v-734c52 7 93 57 93 118h20c0 -76 -56 -137 -126 -137
c-88 0 -133 67 -133 151v570l-282 -699h-19l-283 627v-609h91v-18h-202z" />
    <glyph glyph-name="N.swsh" horiz-adv-x="1186" 
d="M359 0v18h91v642l-63 71h-48c-156 0 -284 -83 -284 -244c0 -134 110 -244 244 -244v-18c-146 0 -264 118 -264 262c0 173 136 262 304 262h116c115 0 160 -51 191 -87l385 -436v505h-91v18h202v-18h-91v-718l26 -29c43 -48 67 -70 112 -70c43 0 63 38 63 38l18 -8
s-26 -48 -81 -48c-53 0 -81 23 -128 76l-591 666v-620h91v-18h-202z" />
    <glyph glyph-name="O.swsh" horiz-adv-x="900" 
d="M70 349c0 255 156 444 380 444s380 -189 380 -444c0 -230 -156 -437 -380 -437s-380 207 -380 437zM240 7c57 -48 129 -77 210 -77s152 29 210 77v695c-58 46 -129 73 -210 73s-153 -27 -210 -73v-695z" />
    <glyph glyph-name="P.swsh" horiz-adv-x="1047" 
d="M359 0v18h91v713h-112c-156 0 -283 -84 -283 -243c0 -135 110 -245 244 -245v-18c-146 0 -264 118 -264 263c0 171 137 261 303 261h112v52c0 62 34 113 100 113v-18c-52 0 -80 -43 -80 -95v-52h302c148 0 246 -103 246 -228c0 -123 -98 -223 -246 -223h-176v-280h91v-18
h-328zM596 316h176c31 0 60 4 86 13v388c-26 9 -55 14 -86 14h-176v-415z" />
    <glyph glyph-name="Q.swsh" horiz-adv-x="884" 
d="M216 -63c0 33 27 62 82 62c53 0 120 -28 190 -63c56 26 115 62 167 108v653c-62 49 -138 78 -220 78s-159 -29 -220 -77v-587c16 -6 32 -8 50 -8c62 0 110 50 97 89l18 6c17 -49 -40 -113 -115 -113c-126 0 -220 128 -220 301c0 224 175 407 390 407s390 -184 390 -420
c0 -232 -167 -374 -317 -447c13 -6 26 -13 39 -20c98 -50 200 -103 281 -103c97 0 193 77 172 173l20 4c23 -108 -83 -195 -192 -195c-87 0 -191 54 -291 105c-17 9 -34 18 -51 26c-74 -33 -142 -48 -180 -48c-63 0 -90 37 -90 69zM236 -63c0 -24 21 -51 70 -51
c35 0 94 13 160 40c-64 31 -123 55 -168 55c-41 0 -62 -21 -62 -44z" />
    <glyph glyph-name="R.swsh" horiz-adv-x="993" 
d="M281 0v18h91v713h-79c-134 0 -244 -77 -244 -200c0 -115 95 -220 210 -220v-18c-124 0 -230 113 -230 239c0 133 117 217 264 217h371c145 0 241 -89 241 -203c0 -76 -43 -148 -124 -188c80 -34 115 -98 115 -176v-346c4 -1 8 -1 13 -1c83 0 138 64 138 142h20
c0 -88 -65 -160 -159 -160c-62 0 -111 30 -138 77c-17 30 -25 67 -25 106v348h-227v-330h91v-18h-328zM518 366h227v354c-25 7 -52 11 -81 11h-146v-365z" />
    <glyph glyph-name="S.swsh" horiz-adv-x="661" 
d="M57 95c0 67 47 122 112 122v-18c-53 0 -92 -47 -92 -104c0 -102 135 -163 262 -163c107 0 191 43 226 118c-3 8 -15 35 -51 64l-340 282c-63 53 -97 103 -97 184c0 139 124 213 270 213c116 0 245 -55 245 -153c0 -48 -38 -84 -83 -84s-83 37 -83 82h20
c0 -35 28 -64 63 -64s63 28 63 66c0 86 -119 135 -225 135c-103 0 -193 -39 -231 -113c0 -4 7 -27 46 -59l343 -285c65 -54 98 -99 98 -186c0 -137 -111 -218 -264 -218c-137 0 -282 67 -282 181z" />
    <glyph glyph-name="T.swsh" horiz-adv-x="887" 
d="M369 0v18h91v713h-203c-117 0 -212 -63 -212 -182c0 -100 82 -182 182 -182v-18c-110 0 -202 90 -202 200c0 131 103 200 232 200h587c45 0 81 24 81 70c0 39 -32 70 -70 70v18c50 0 90 -39 90 -88c0 -58 -46 -88 -101 -88h-238v-713h91v-18h-328z" />
    <glyph glyph-name="U.swsh" horiz-adv-x="1152" 
d="M233 337c-115 0 -208 93 -208 206c0 135 106 206 239 206h349v-18h-48v-684c48 -28 107 -41 170 -41c153 0 280 89 280 282v443h-91v18h202v-18h-91v-443c0 -205 -137 -300 -300 -300c-172 0 -316 95 -316 300v443h-155c-121 0 -219 -65 -219 -188
c0 -103 85 -188 188 -188v-18z" />
    <glyph glyph-name="V.swsh" horiz-adv-x="977" 
d="M259 293c-125 0 -230 100 -230 233c0 141 117 223 264 223h237v-18h-46l239 -555l186 454c25 61 38 85 38 117c0 42 -30 78 -89 81l2 18c71 -5 107 -47 107 -97c0 -33 -10 -51 -40 -125l-258 -630h-20l-326 737h-30c-135 0 -244 -75 -244 -205c0 -122 95 -215 210 -215
v-18z" />
    <glyph glyph-name="W.swsh" horiz-adv-x="1298" 
d="M259 293c-125 0 -230 103 -230 228c0 149 117 228 264 228h764v-18h-75l-85 -211l147 -345l186 455c25 61 38 85 38 117c0 42 -30 78 -89 81l2 18c71 -5 107 -47 107 -97c0 -33 -10 -51 -40 -125l-257 -630h-20l-156 352l-144 -352h-20l-326 737h-32
c-135 0 -244 -73 -244 -210c0 -115 95 -210 210 -210v-18zM724 175l80 195l-159 361h-158zM887 544l74 187h-154z" />
    <glyph glyph-name="X.swsh" horiz-adv-x="970" 
d="M174 0v18h76l237 322l-284 433c-91 -17 -156 -95 -156 -187c0 -105 85 -191 190 -191v-18c-116 0 -210 94 -210 210c0 114 92 208 214 208c38 0 75 -9 105 -26c31 -17 56 -41 79 -76l172 -261l219 299h-97v18h202v-18h-81l-232 -316l269 -408c35 23 55 64 55 112h20
c0 -82 -55 -147 -138 -147c-63 0 -110 38 -153 104l-163 247l-225 -305h98v-18h-197z" />
    <glyph glyph-name="Y.swsh" horiz-adv-x="934" 
d="M379 0v18h90v318l-279 436c-85 -20 -149 -96 -149 -186c0 -105 85 -191 190 -191v-18c-116 0 -210 94 -210 210c0 114 91 208 220 208c32 0 67 -6 97 -24c28 -17 53 -46 74 -78l192 -304l158 323c28 57 57 81 96 81c49 0 81 -37 81 -81c0 -47 -37 -84 -84 -84v18
c35 0 64 29 64 65c0 35 -26 64 -61 64s-57 -28 -78 -71l-165 -337v-349h92v-18h-328z" />
    <glyph glyph-name="Z.swsh" horiz-adv-x="875" 
d="M-43 -59c0 60 61 78 138 78c14 0 29 -1 45 -2l427 714h-426v-168h-20v246h20v-60h598v-15l-442 -742l48 -11c81 -18 168 -36 232 -36c177 0 236 127 236 257c0 27 -3 55 -8 82l20 4c5 -27 8 -57 8 -86c0 -140 -65 -275 -256 -275c-70 0 -153 18 -236 36
c-64 14 -129 28 -188 35l-30 -51c-25 -42 -46 -76 -93 -76c-45 0 -73 30 -73 70zM-23 -59c0 -30 20 -52 53 -52c35 0 51 28 75 68l25 43c-12 1 -24 1 -35 1c-65 0 -118 -14 -118 -60z" />
    <glyph glyph-name="Eth.swsh" horiz-adv-x="1129" 
d="M230 -82c0 65 50 100 115 100h66v353h-91v18h91v342h-117c-134 0 -244 -72 -244 -210c0 -115 95 -210 210 -210v-18c-125 0 -230 103 -230 228c0 150 118 228 264 228h387c230 0 392 -168 392 -371c0 -210 -162 -378 -392 -378h-250v-67c0 -64 -36 -114 -101 -114
c-56 0 -100 44 -100 99zM557 18h124c87 0 164 25 225 69v575c-61 43 -138 69 -225 69h-124v-342h186v-18h-186v-353zM250 -82c0 -45 36 -81 80 -81c53 0 81 42 81 96v67h-66c-53 0 -95 -29 -95 -82z" />
    <glyph glyph-name="Lslash.swsh" horiz-adv-x="808" 
d="M100 -39c0 48 37 86 87 86c20 0 42 -7 67 -17v292l-85 -51l-10 16l95 57v387h-144c-45 0 -81 -24 -81 -70c0 -39 31 -70 70 -70v-18c-50 0 -90 39 -90 88c0 58 46 88 101 88h333v-18h-43v-299l229 140l10 -16l-239 -146v-466c93 -61 195 -128 283 -128
c79 0 145 53 145 125c0 12 -2 24 -6 38l20 4c4 -14 6 -28 6 -42c0 -82 -76 -143 -165 -143c-97 0 -203 71 -300 134c-39 25 -76 50 -109 68v-27c0 -54 -29 -98 -87 -98c-49 0 -87 38 -87 86zM120 -39c0 -38 30 -68 67 -68c44 0 67 36 67 80v36c-26 12 -48 20 -67 20
c-38 0 -67 -30 -67 -68z" />
    <glyph glyph-name="Thorn.swsh" horiz-adv-x="974" 
d="M283 0v18h91v713h-135c-107 0 -195 -58 -195 -168c0 -92 76 -168 168 -168v-18c-104 0 -188 84 -188 186c0 122 96 186 215 186h372v-18h-91v-129h176c148 0 246 -103 246 -228c0 -119 -98 -217 -246 -217h-176v-139h91v-18h-328zM520 175h176c31 0 60 5 86 13v382
c-26 9 -55 14 -86 14h-176v-409z" />
    <glyph glyph-name="AE.swsh" horiz-adv-x="1246" 
d="M-50 -59c0 0 30 -24 80 -24c65 0 103 46 136 100l122 197h-8c-134 0 -245 74 -245 214c0 117 95 212 215 212v-18c-108 0 -195 -87 -195 -194c0 -128 101 -196 225 -196h19l309 499h-71v18h632v-186h-20v168h-349v-347h241v106h20v-226h-20v102h-241v-348h359v169h20
v-187h-616v18h91v196h-342l-128 -207c-35 -56 -80 -108 -154 -108c-58 0 -92 28 -92 28zM323 232h331v499h-22z" />
    <glyph glyph-name="OE.swsh" horiz-adv-x="1080" 
d="M50 371c0 208 170 378 381 378h538c45 0 81 24 81 70c0 39 -32 70 -70 70v18c50 0 90 -39 90 -88c0 -58 -46 -88 -101 -88h-318v-332h241v106h20v-226h-20v102h-241v-363h359v169h20v-187h-525v731h-74c-199 0 -361 -162 -361 -360c0 -193 162 -353 361 -353v-18
c-211 0 -381 168 -381 371z" />
    <glyph glyph-name="Oslash.swsh" horiz-adv-x="903" 
d="M210 -91l35 70c-109 79 -175 219 -175 370c0 255 156 444 380 444c71 0 135 -19 190 -53l35 67l18 -8l-37 -70c108 -76 174 -215 174 -380c0 -230 -156 -437 -380 -437c-70 0 -134 21 -188 56l-34 -67zM240 7c5 -4 9 -8 14 -11l377 727c-52 33 -113 52 -181 52
c-81 0 -153 -27 -210 -73v-695zM271 -16c51 -34 112 -54 179 -54c81 0 152 29 210 77v695c-4 4 -9 7 -13 10z" />
    <glyph glyph-name="a.fina" horiz-adv-x="912" 
d="M28 123c0 85 62 132 149 132h38c62 0 108 27 110 70v160c-17 5 -36 8 -55 8c-44 0 -88 -10 -122 -27c14 -12 44 -39 44 -71c0 -36 -31 -60 -63 -60s-63 28 -63 62c0 62 104 114 204 114c117 0 197 -78 197 -207v-286h208c108 0 196 58 196 169c0 25 -5 49 -14 73l18 6
c11 -28 16 -54 16 -79c0 -123 -96 -187 -216 -187h-222c-60 0 -103 36 -120 88c-5 -22 -15 -42 -32 -58c-27 -26 -67 -42 -120 -42c-104 0 -153 57 -153 135zM178 6h3c93 0 141 58 144 128v6v139c-8 -11 -18 -21 -33 -27c-21 -10 -47 -15 -77 -15h-37v-231z" />
    <glyph glyph-name="b.fina" horiz-adv-x="1018" 
d="M78 0v731h-86v18h227v-698l24 -12c33 -17 70 -33 125 -33c23 0 44 4 64 11v378c-28 -12 -53 -19 -76 -19c-45 0 -79 30 -79 68c0 37 34 67 79 67c58 0 107 -23 145 -60l24 14c88 50 198 110 304 110c107 0 178 -73 178 -162c0 -22 -4 -46 -14 -69l-18 6c8 20 12 42 12 63
c0 79 -63 144 -158 144c-104 0 -206 -57 -294 -108l-21 -12c45 -50 71 -120 71 -190c0 -147 -88 -259 -217 -259c-61 0 -100 17 -135 35c-25 13 -46 23 -69 23c-24 0 -51 -14 -67 -46h-19zM356 394c33 0 79 21 128 48c-34 31 -78 51 -128 51c-33 0 -59 -22 -59 -49
c0 -28 26 -50 59 -50z" />
    <glyph glyph-name="c.fina" horiz-adv-x="835" 
d="M183 29c30 -15 65 -23 103 -23c149 0 194 135 194 135l18 -6s-49 -147 -212 -147c-147 0 -251 117 -251 259c0 150 114 264 258 264c48 0 99 -13 138 -35c27 13 63 23 108 23h261c36 0 65 29 65 66h20c0 -47 -37 -84 -85 -84h-261c-36 0 -67 -7 -90 -17
c25 -18 41 -41 41 -67c0 -36 -30 -62 -63 -62s-63 27 -63 62c0 20 16 48 49 69c-35 17 -79 27 -120 27c-40 0 -77 -10 -110 -27v-437zM384 397c0 -25 20 -44 43 -44s43 18 43 44c0 23 -16 43 -40 59c-31 -18 -46 -41 -46 -59z" />
    <glyph glyph-name="d.fina" horiz-adv-x="998" 
d="M242 -12c-130 0 -204 124 -204 261c0 170 100 262 207 262c49 0 91 -16 122 -42c19 -17 33 -37 42 -61v323h-86v18h227v-731h209c108 0 196 58 196 169c0 25 -5 49 -14 73l18 6c11 -28 16 -54 16 -79c0 -123 -96 -187 -216 -187h-222c-69 0 -115 47 -126 112
c-9 -31 -24 -57 -46 -78c-31 -29 -73 -46 -123 -46zM191 14c15 -5 32 -8 51 -8c101 0 164 79 167 181v142c0 91 -65 164 -164 164c-19 0 -37 -3 -54 -9v-470z" />
    <glyph glyph-name="e.fina" horiz-adv-x="936" 
d="M184 30c30 -16 65 -24 103 -24c148 0 196 135 196 135l18 -6s-52 -147 -214 -147c-147 0 -252 118 -252 259c0 147 110 264 248 264c126 0 215 -100 231 -226h314c43 0 72 23 77 67l20 -2c-5 -54 -43 -83 -97 -83h-644v-237zM184 285h172v195c-23 8 -47 13 -73 13
c-36 0 -69 -9 -99 -24v-184z" />
    <glyph glyph-name="f.fina" horiz-adv-x="709" 
d="M19 0v18h86v463h-81v18h81v63c0 110 61 199 184 199c73 0 160 -32 160 -98c0 -40 -31 -63 -63 -63c-33 0 -63 27 -63 62c0 31 25 56 42 68c-24 9 -51 13 -76 13c-16 0 -30 -2 -43 -5v-239h418c43 0 72 23 77 67l20 -2c-5 -54 -43 -83 -97 -83h-418v-463h86v-18h-313z" />
    <glyph glyph-name="g.fina" horiz-adv-x="897" 
d="M75 12c-17 21 -27 49 -27 81c0 62 38 104 84 123c-46 30 -70 77 -70 129c0 92 76 166 214 166c39 0 73 -6 102 -17c121 -29 218 -36 293 -36c198 0 257 52 257 105c0 25 -20 46 -45 46c-13 0 -25 -6 -34 -15l-14 12c12 13 29 21 48 21c35 0 65 -29 65 -64
c0 -63 -63 -123 -277 -123c-64 0 -143 4 -237 23c37 -30 57 -72 57 -118c0 -91 -76 -167 -215 -167c-49 0 -89 9 -122 25c-44 -13 -86 -51 -86 -110v-5h267c150 0 198 -64 198 -133c0 -99 -108 -170 -258 -170c-141 0 -237 69 -237 146c0 32 11 58 37 81zM88 -1
c-21 -20 -30 -42 -30 -68c0 -67 88 -128 217 -128c138 0 238 63 238 152v6h-326c-38 0 -74 14 -99 38zM194 207c24 -7 51 -11 82 -11s59 4 83 11v275c-24 7 -52 11 -83 11s-58 -4 -82 -11v-275z" />
    <glyph glyph-name="h.fina" horiz-adv-x="1036" 
d="M12 0v18h86v713h-86v18h227v-356c9 26 22 48 41 66c35 34 84 52 135 52c61 0 110 -25 140 -69c24 -35 35 -83 35 -135v-289h209c108 0 196 58 196 169c0 25 -5 49 -14 73l18 6c11 -28 16 -54 16 -79c0 -123 -96 -187 -216 -187h-222c-78 0 -128 61 -128 140v349
c-11 2 -23 4 -35 4c-105 0 -175 -84 -175 -186v-289h86v-18h-313z" />
    <glyph glyph-name="i.fina" horiz-adv-x="695" 
d="M21 0v18h86v463h-86v18h227v-481h209c108 0 196 58 196 169c0 25 -5 49 -14 73l18 6c11 -28 16 -54 16 -79c0 -123 -96 -187 -216 -187h-436zM177 586c-37 0 -70 32 -70 69s33 69 70 69s70 -32 70 -69s-33 -69 -70 -69z" />
    <glyph glyph-name="dotlessi.fina" horiz-adv-x="695" 
d="M21 0v18h86v463h-86v18h227v-481h209c108 0 196 58 196 169c0 25 -5 49 -14 73l18 6c11 -28 16 -54 16 -79c0 -123 -96 -187 -216 -187h-436z" />
    <glyph glyph-name="j.fina" horiz-adv-x="695" 
d="M88 18h16v463h-86v18h227v-481h212c108 0 196 58 196 169c0 25 -5 49 -14 73l18 6c11 -28 16 -54 16 -79c0 -123 -96 -187 -216 -187h-212v-4c0 -117 -44 -211 -157 -211c-66 0 -121 52 -121 115c0 66 55 118 121 118zM88 0c-56 0 -101 -44 -101 -100
c0 -53 45 -97 101 -97c5 0 11 0 16 1v196h-16zM174 586c-37 0 -70 32 -70 69s33 69 70 69s70 -32 70 -69s-33 -69 -70 -69z" />
    <glyph glyph-name="k.fina" horiz-adv-x="971" 
d="M12 0v18h86v713h-86v18h227v-516l259 248h-89v18h192v-18h-74l-139 -132l201 -331h144c108 0 196 58 196 169c0 25 -5 49 -14 73l18 6c11 -28 16 -54 16 -79c0 -123 -96 -187 -216 -187h-227c-50 0 -86 24 -108 62l-110 191l-49 -47v-188h86v-18h-313z" />
    <glyph glyph-name="l.fina" horiz-adv-x="662" 
d="M74 140v591h-86v18h227v-731h209c108 0 196 58 196 169c0 25 -5 49 -14 73l18 6c11 -28 16 -54 16 -79c0 -123 -96 -187 -216 -187h-222c-78 0 -128 61 -128 140z" />
    <glyph glyph-name="m.fina" horiz-adv-x="1385" 
d="M21 0v18h86v463h-86v18h227v-106c9 26 22 48 41 66c35 34 81 52 132 52c61 0 108 -25 138 -69c13 -19 21 -42 27 -67c9 34 26 62 49 84c35 34 81 52 132 52c61 0 108 -25 138 -69c24 -35 35 -83 35 -135v-289h208c108 0 196 58 196 169c0 25 -5 49 -14 73l18 6
c11 -28 16 -54 16 -79c0 -123 -96 -187 -216 -187h-221c-78 0 -128 61 -128 140v350c-10 2 -21 3 -32 3c-103 0 -173 -84 -173 -186v-289h86v-18h-227v490c-10 2 -21 3 -32 3c-101 0 -170 -80 -173 -179v-296h86v-18h-313z" />
    <glyph glyph-name="n.fina" horiz-adv-x="1045" 
d="M21 0v18h86v463h-86v18h227v-106c9 26 22 48 41 66c35 34 84 52 135 52c61 0 110 -25 140 -69c24 -35 35 -83 35 -135v-289h209c108 0 196 58 196 169c0 25 -5 49 -14 73l18 6c11 -28 16 -54 16 -79c0 -123 -96 -187 -216 -187h-222c-78 0 -128 61 -128 140v349
c-11 2 -23 4 -35 4c-105 0 -175 -84 -175 -186v-289h86v-18h-313z" />
    <glyph glyph-name="o.fina" horiz-adv-x="996" 
d="M181 37c36 -20 78 -31 123 -31c44 0 86 11 122 31v365c-34 -16 -65 -26 -92 -26c-45 0 -79 30 -79 68c0 37 34 67 79 67c49 0 103 -21 146 -59l23 13c88 50 198 110 304 110c107 0 178 -73 178 -163c0 -22 -4 -45 -14 -68l-18 6c8 20 12 41 12 62c0 80 -63 145 -158 145
c-104 0 -206 -57 -294 -108c-6 -4 -12 -7 -18 -10c46 -46 78 -111 78 -187c0 -147 -122 -264 -269 -264c-150 0 -271 119 -271 259c0 111 70 200 165 243l8 -16c-9 -4 -17 -9 -25 -13v-424zM334 394c33 0 79 21 129 48c-39 32 -86 51 -129 51c-33 0 -59 -22 -59 -49
c0 -28 26 -50 59 -50z" />
    <glyph glyph-name="p.fina" horiz-adv-x="1044" 
d="M12 -185h86v666h-86v18h227v-103c8 25 21 47 40 65c32 31 76 50 127 50c130 0 204 -117 204 -258c0 -69 -28 -138 -75 -187c8 -4 16 -9 25 -13c89 -49 191 -106 294 -106c95 0 158 65 158 144c0 21 -4 43 -12 63l18 6c10 -23 14 -47 14 -69c0 -89 -71 -162 -178 -162
s-216 59 -304 108l-29 15c-38 -34 -86 -55 -140 -55c-42 0 -72 27 -72 64c0 35 30 63 72 63c23 0 48 -7 75 -18v380c-16 4 -32 7 -50 7c-98 0 -164 -77 -167 -177v-501h86v-18h-313v18zM329 61c0 -27 22 -46 52 -46c47 0 89 18 122 46c-47 25 -90 45 -122 45
c-30 0 -52 -20 -52 -45z" />
    <glyph glyph-name="q.fina" horiz-adv-x="970" 
d="M242 -12c-130 0 -204 122 -204 265c0 149 82 258 216 258c61 0 101 -19 135 -37c25 -13 46 -24 69 -24s52 13 69 49h18v-684h99c161 0 291 86 291 251c0 37 -7 72 -21 108l18 6c16 -39 23 -76 23 -114c0 -177 -138 -269 -311 -269h-326v18h86v285c-8 -24 -21 -46 -38 -63
c-31 -31 -73 -49 -124 -49zM191 14c15 -5 32 -8 51 -8c101 0 162 83 162 187v252c-8 4 -17 8 -25 13c-32 17 -70 35 -125 35c-23 0 -44 -4 -63 -10v-469z" />
    <glyph glyph-name="r.fina" horiz-adv-x="750" 
d="M21 0v18h86v463h-86v18h227v-105c8 22 20 42 36 58c39 39 93 59 143 59c33 0 71 -9 102 -25c22 8 49 13 79 13h104c43 0 72 23 77 67l20 -2c-5 -54 -43 -83 -97 -83h-104c-22 0 -42 -3 -59 -8c26 -18 43 -43 43 -74c0 -43 -34 -73 -72 -73c-39 0 -72 32 -72 69
c0 28 21 60 59 81c-25 11 -54 17 -80 17c-81 0 -175 -59 -179 -177v-298h86v-18h-313zM468 395c0 -27 23 -51 52 -51c28 0 52 22 52 55c0 28 -19 51 -45 67c-39 -17 -59 -45 -59 -71z" />
    <glyph glyph-name="s.fina" horiz-adv-x="780" 
d="M48 0v170h20v-68c9 -13 76 -96 192 -96c54 0 105 19 136 54c-3 7 -12 20 -31 33l-205 131c-77 49 -108 72 -108 132c0 104 92 155 194 155c48 0 104 -13 146 -35c28 14 65 23 113 23h234c43 0 72 23 77 67l20 -2c-5 -54 -43 -83 -97 -83h-234c-39 0 -70 -6 -94 -16
c27 -18 45 -41 45 -66c0 -36 -30 -62 -63 -62s-63 27 -63 62c0 22 14 47 44 67c-37 17 -86 27 -128 27c-57 0 -109 -17 -141 -51c4 -10 13 -25 30 -35l215 -138c66 -42 98 -67 98 -126c0 -99 -90 -155 -188 -155c-97 0 -163 54 -192 85v-73h-20zM393 355c23 0 43 18 43 44
c0 22 -17 41 -43 57c-29 -16 -43 -38 -43 -57c0 -25 20 -44 43 -44z" />
    <glyph glyph-name="t.fina" horiz-adv-x="697" 
d="M94 133v348h-93v18h93v89l141 102v-191h418c43 0 72 23 77 67l20 -2c-5 -54 -43 -83 -97 -83h-418v-470c59 1 108 54 108 119h20c0 -76 -58 -137 -131 -137c-84 0 -138 61 -138 140z" />
    <glyph glyph-name="u.fina" horiz-adv-x="1026" 
d="M88 195v286h-86v18h227v-489c11 -3 24 -4 38 -4c99 0 168 80 172 183v292h-86v18h227v-481h208c108 0 196 58 196 169c0 25 -5 49 -14 73l18 6c11 -28 16 -54 16 -79c0 -123 -96 -187 -216 -187h-221c-70 0 -117 48 -126 114c-8 -24 -19 -46 -35 -64
c-34 -38 -82 -62 -139 -62c-120 0 -179 91 -179 207z" />
    <glyph glyph-name="v.fina" horiz-adv-x="943" 
d="M272 -6l-234 487h-54v18h289v-18h-80l147 -316l130 316c-48 0 -91 20 -91 67c0 36 28 63 65 63c35 0 66 -25 66 -66c0 -15 -7 -34 -12 -46h207c120 0 216 -64 216 -187c0 -25 -5 -51 -16 -79l-18 6c9 24 14 48 14 73c0 111 -88 169 -196 169h-215l-200 -487h-18zM399 548
c0 -35 33 -49 71 -49h8c4 9 12 30 12 46c0 29 -21 48 -46 48s-45 -19 -45 -45z" />
    <glyph glyph-name="w.fina" horiz-adv-x="1302" 
d="M272 -6l-234 487h-54v18h289v-18h-81l147 -318l97 237l-39 81h-64v18h289v-18h-71l147 -318l131 318c-48 0 -91 20 -91 67c0 36 28 63 65 63c35 0 66 -25 66 -66c0 -15 -7 -34 -12 -46h207c120 0 216 -64 216 -187c0 -25 -5 -51 -16 -79l-18 6c9 24 14 48 14 73
c0 111 -88 169 -196 169h-215l-200 -487h-18l-184 383l-157 -383h-18zM758 548c0 -35 33 -49 71 -49h8c4 9 12 30 12 46c0 29 -21 48 -46 48s-45 -19 -45 -45z" />
    <glyph glyph-name="x.fina" horiz-adv-x="902" 
d="M8 0v18h73l148 196l-168 267h-56v18h294v-18h-77l109 -174l130 174h-90v18h192v-18h-78l-144 -191l171 -272h163c111 0 185 76 185 169c0 25 -5 49 -14 73l18 6c11 -28 16 -54 16 -79c0 -103 -82 -187 -205 -187h-241c-46 0 -84 23 -105 56l-89 141l-136 -179h91v-18
h-187z" />
    <glyph glyph-name="y.fina" horiz-adv-x="947" 
d="M64 -61c37 0 64 -27 64 -60c0 -34 -29 -58 -48 -71c10 -3 21 -5 32 -5c62 0 102 56 141 144l24 58l-243 476h-50v18h289v-18h-84l157 -308l127 308c-48 0 -91 20 -91 67c0 36 28 63 65 63c35 0 66 -25 66 -66c0 -15 -7 -34 -12 -46h207c120 0 216 -64 216 -187
c0 -25 -5 -51 -16 -79l-18 6c9 24 14 48 14 73c0 111 -88 169 -196 169h-215l-222 -540c-41 -94 -88 -156 -159 -156c-57 0 -111 39 -111 92c0 41 30 62 63 62zM402 548c0 -35 33 -49 71 -49h8c4 9 12 30 12 46c0 29 -21 48 -46 48s-45 -19 -45 -45z" />
    <glyph glyph-name="z.fina" horiz-adv-x="886" 
d="M20 0v15l310 466h-257v-118h-20v136h443v-15l-312 -466h464c108 0 196 58 196 169c0 25 -5 49 -14 73l18 6c11 -28 16 -54 16 -79c0 -123 -96 -187 -216 -187h-628z" />
    <glyph glyph-name="lslash.fina" horiz-adv-x="663" 
d="M74 140v228l-85 -51l-10 16l95 57v341h-86v18h227v-274l84 51l10 -16l-94 -57v-435h209c108 0 196 58 196 169c0 25 -5 49 -14 73l18 6c11 -28 16 -54 16 -79c0 -123 -96 -187 -216 -187h-222c-78 0 -128 61 -128 140z" />
    <glyph glyph-name="ae.fina" horiz-adv-x="1210" 
d="M28 129c0 94 69 148 177 148h120v209c-18 4 -36 7 -56 7c-40 0 -83 -10 -116 -26c15 -12 44 -40 44 -73c0 -34 -31 -59 -63 -59c-34 0 -63 27 -63 61c0 64 104 115 199 115c59 0 109 -19 143 -55c19 16 70 55 148 55c128 0 213 -111 225 -236h315c43 0 72 23 77 67l20 -2
c-5 -54 -43 -83 -97 -83h-634v-229c31 -14 65 -22 100 -22c141 0 189 135 189 135l18 -6s-53 -147 -207 -147c-78 0 -155 38 -200 98l-3 3c-17 -34 -64 -101 -178 -101c-106 0 -158 59 -158 141zM467 275h162v205c-21 8 -45 13 -69 13c-69 0 -117 -36 -134 -51
c9 -11 17 -25 23 -39c12 -28 18 -59 18 -99v-29zM178 6h8c117 0 156 82 165 104c-19 34 -26 69 -26 104v45h-120c-10 0 -19 -1 -27 -2v-251z" />
    <glyph glyph-name="oe.fina" horiz-adv-x="1292" 
d="M34 247c0 143 121 264 270 264c65 0 127 -24 174 -62c43 39 99 62 161 62c126 0 215 -100 231 -226h314c43 0 72 23 77 67l20 -2c-5 -54 -43 -83 -97 -83h-644v-237c30 -16 65 -24 103 -24c148 0 196 135 196 135l18 -6s-52 -147 -214 -147c-66 0 -123 23 -166 61
c-46 -38 -107 -61 -173 -61c-149 0 -270 119 -270 259zM182 37c36 -20 78 -31 122 -31c60 0 115 21 159 57c-45 47 -72 113 -72 184c0 74 27 140 73 188c-44 36 -100 58 -160 58c-44 0 -86 -12 -122 -32v-424zM540 285h172v195c-23 8 -47 13 -73 13c-36 0 -69 -9 -99 -24
v-184z" />
    <glyph glyph-name="oslash.fina" horiz-adv-x="997" 
d="M168 -46l25 57c-94 42 -159 133 -159 236c0 111 70 200 165 243l8 -16c-9 -4 -17 -9 -25 -13v-424l18 -9l150 349c-5 -1 -10 -1 -15 -1c-45 0 -79 30 -79 68c0 37 34 67 79 67c22 0 45 -5 68 -13l30 72l18 -8l-30 -71c21 -10 42 -23 60 -39l23 13c88 50 198 110 304 110
c107 0 178 -73 178 -163c0 -22 -4 -45 -14 -68l-18 6c8 20 12 41 12 62c0 80 -63 145 -158 145c-104 0 -206 -57 -294 -108c-6 -4 -12 -7 -18 -10c46 -46 78 -111 78 -187c0 -147 -122 -264 -269 -264c-33 0 -65 6 -94 16l-25 -58zM218 21c27 -10 56 -15 87 -15
c44 0 86 11 122 31v365c-19 -9 -36 -16 -53 -20zM335 394c33 0 79 21 129 48c-39 32 -86 51 -129 51c-33 0 -59 -22 -59 -49c0 -28 26 -50 59 -50z" />
    <glyph glyph-name="fleuron1" horiz-adv-x="1099" 
d="M269 189c-108 0 -200 73 -200 172c0 18 3 36 8 53l20 -6c-5 -17 -8 -33 -8 -47c0 -89 82 -154 180 -154c84 0 180 58 271 121l-35 25c-87 61 -169 119 -224 119c-48 0 -85 -38 -85 -85c0 -48 38 -86 85 -86v-18c-59 0 -105 46 -105 104c0 57 45 103 105 103
c62 0 144 -59 236 -123l39 -28l39 27c91 65 174 124 237 124c60 0 104 -46 104 -103c0 -58 -45 -104 -104 -104v18c47 0 84 38 84 86c0 47 -36 85 -84 85c-55 0 -137 -58 -225 -120l-34 -24c91 -63 186 -121 270 -121c98 0 180 65 180 155c0 14 -2 29 -7 46l20 6
c5 -17 7 -34 7 -52c0 -100 -92 -173 -200 -173c-88 0 -192 62 -287 127c-95 -65 -199 -127 -287 -127z" />
    <glyph glyph-name="fleuron2" horiz-adv-x="1000" 
d="M264 237c0 35 30 63 75 63c36 0 92 -18 145 -47c25 16 50 34 74 52l17 12c-43 28 -86 61 -128 94l-29 22c-61 -33 -120 -57 -173 -57c-76 0 -100 49 -100 89c0 49 38 89 87 89c50 0 113 -43 187 -99c44 25 90 55 132 83l39 26l-23 17c-102 73 -209 152 -304 152
c-79 0 -128 -55 -128 -104c0 -7 1 -16 3 -23l-20 -4c-2 7 -3 18 -3 26c0 58 56 123 148 123c97 0 201 -72 316 -156l27 -21c71 46 137 83 187 83c56 0 99 -44 99 -99c0 -54 -42 -98 -96 -98c-53 0 -117 41 -189 92l-46 -30c-42 -27 -84 -55 -126 -79l24 -18
c43 -34 89 -68 132 -96c58 41 109 74 151 74s72 -33 72 -74c0 -35 -22 -73 -81 -73c-43 0 -92 21 -141 51l-22 -16c-23 -17 -46 -34 -68 -49c61 -38 114 -93 114 -154c0 -55 -41 -97 -93 -97c-46 0 -91 34 -91 78c0 9 2 18 6 28l18 -6c-2 -7 -4 -14 -4 -22
c0 -34 36 -60 71 -60c40 0 73 34 73 79c0 57 -52 108 -111 143c-52 -34 -102 -58 -148 -58c-54 0 -73 35 -73 64zM623 562c67 -48 126 -84 171 -84s78 37 78 80c0 45 -35 81 -79 81c-42 0 -103 -34 -170 -77zM245 394c45 0 100 21 157 52c-67 50 -127 90 -169 90
c-38 0 -68 -32 -68 -71c0 -31 20 -71 80 -71zM608 319c46 -27 89 -45 125 -45c45 0 61 28 61 55c0 31 -22 56 -53 56c-34 0 -81 -29 -133 -66zM284 237c0 -20 13 -46 54 -46c37 0 83 21 129 51c-47 25 -96 40 -127 40c-35 0 -56 -20 -56 -45z" />
    <glyph glyph-name="fleuron3" horiz-adv-x="912" 
d="M162 143c0 54 34 102 87 136l-29 43c-10 14 -21 28 -31 43c-53 -30 -120 -47 -189 -47v18c66 0 130 16 180 44c-27 42 -47 86 -47 131c0 47 33 81 80 81s80 -34 80 -81c0 -55 -34 -102 -87 -136l30 -43l30 -43c53 29 120 47 190 47c69 0 137 -18 190 -47
c9 14 20 29 30 43s20 28 29 43c-52 34 -86 81 -86 136c0 47 33 81 80 81s80 -34 80 -81c0 -45 -21 -89 -47 -131c49 -28 114 -44 180 -44v-18c-69 0 -137 17 -190 47l-30 -43l-30 -43c53 -34 88 -82 88 -136c0 -47 -33 -81 -80 -81s-81 34 -81 81c0 45 20 89 47 131
c-50 27 -114 44 -180 44s-131 -17 -180 -44c26 -42 47 -86 47 -131c0 -47 -34 -81 -81 -81s-80 34 -80 81z" />
    <glyph glyph-name="fleuron4" horiz-adv-x="972" 
d="M0 318v18h131c37 0 68 5 92 14c-29 19 -43 45 -43 70c0 35 30 62 63 62s63 -26 63 -62c0 -25 -15 -51 -43 -70c24 -9 55 -14 92 -14h262c46 0 84 -9 112 -22c28 13 65 22 112 22h131v-18h-131c-37 0 -68 -6 -92 -15c28 -19 43 -45 43 -69c0 -36 -30 -62 -63 -62
s-63 27 -63 62c0 24 14 50 43 69c-24 9 -55 15 -92 15h-262c-47 0 -84 8 -112 21c-28 -13 -66 -21 -112 -21h-131zM595 234h20c0 -63 51 -117 114 -117s114 54 114 117h20c0 -73 -59 -135 -134 -135s-134 62 -134 135zM109 420c0 73 59 135 134 135s134 -62 134 -135h-20
c0 63 -51 117 -114 117s-114 -54 -114 -117h-20z" />
    <glyph glyph-name="fleuron5" horiz-adv-x="919" 
d="M448 480c-46 185 -51 207 -51 227c0 32 14 54 61 54c48 0 62 -22 62 -52c0 -20 -4 -43 -52 -229h-20zM397 96c0 20 5 42 51 227h20c48 -186 52 -209 52 -229c0 -30 -14 -52 -62 -52c-47 0 -61 22 -61 54zM154 340c-32 0 -54 14 -54 61c0 48 22 62 52 62
c20 0 43 -4 229 -52v-20c-185 -46 -207 -51 -227 -51zM538 391v20c186 48 209 52 229 52c30 0 52 -14 52 -62c0 -47 -22 -61 -54 -61c-20 0 -42 5 -227 51z" />
    <glyph glyph-name="fleuron6" horiz-adv-x="882" 
d="M290 553c0 83 69 149 151 149s150 -66 150 -149h-20c0 73 -59 131 -130 131c-72 0 -131 -58 -131 -131h-20zM290 158h20c0 -72 59 -130 131 -130c71 0 130 58 130 130h20c0 -82 -68 -148 -150 -148s-151 66 -151 148zM243 206c-83 0 -149 68 -149 150s66 149 149 149v-18
c-71 0 -129 -59 -129 -131s58 -132 129 -132v-18zM638 206v18c72 0 130 60 130 132s-58 131 -130 131v18c84 0 150 -67 150 -149s-66 -150 -150 -150zM561 489l178 178l14 -12l-178 -178zM307 477l-178 178l14 12l178 -178zM129 57l178 178l14 -12l-178 -178zM561 223l14 12
l178 -178l-14 -12zM313 356c0 69 59 127 128 127s128 -58 128 -127s-59 -127 -128 -127s-128 58 -128 127z" />
    <glyph glyph-name="fleuron7" horiz-adv-x="923" 
d="M439 350c14 32 24 65 24 98c0 51 -25 104 -75 104c-36 0 -62 -27 -62 -61s27 -61 60 -61v-18c-45 0 -80 35 -80 79s34 79 82 79c64 0 95 -63 95 -123c0 -34 -10 -71 -26 -105zM438 215l-2 18c15 2 31 3 46 3c89 0 172 -38 172 -106c0 -43 -35 -78 -79 -78s-79 35 -79 78
h20c0 -33 27 -60 59 -60s59 27 59 60c0 56 -73 88 -151 88c-14 0 -30 -1 -45 -3zM153 131c-86 0 -140 60 -140 115c0 43 34 77 78 77s78 -34 78 -77h-20c0 33 -26 59 -58 59s-58 -26 -58 -60c0 -46 46 -96 120 -96c92 0 200 76 305 150c101 71 197 139 278 139
c70 0 119 -51 119 -108c0 -53 -43 -96 -97 -96s-97 43 -97 96h20c0 -43 35 -78 77 -78s77 35 77 78c0 47 -41 90 -100 90c-73 0 -168 -67 -265 -135c-107 -75 -220 -154 -317 -154zM574 475c0 85 33 214 124 214c45 0 72 -31 72 -68c0 -38 -30 -68 -69 -68v18
c27 0 49 22 49 50c0 24 -17 50 -52 50c-75 0 -104 -118 -104 -196h-20z" />
    <glyph glyph-name="fleuron8" horiz-adv-x="923" 
d="M466 342c-16 34 -26 71 -26 105c0 60 31 123 95 123c48 0 82 -35 82 -79s-35 -79 -80 -79v18c33 0 60 27 60 61s-26 61 -62 61c-50 0 -75 -53 -75 -104c0 -33 10 -66 24 -98zM269 130c0 68 83 106 172 106c15 0 31 -1 46 -3l-2 -18c-15 2 -31 3 -45 3
c-78 0 -151 -32 -151 -88c0 -33 27 -60 59 -60s59 27 59 60h20c0 -43 -35 -78 -79 -78s-79 35 -79 78zM165 234c-54 0 -97 43 -97 96c0 57 49 108 119 108c81 0 177 -68 278 -139c105 -74 213 -150 305 -150c74 0 120 50 120 96c0 34 -26 60 -58 60s-58 -26 -58 -59h-20
c0 43 34 77 78 77s78 -34 78 -77c0 -55 -54 -115 -140 -115c-97 0 -210 79 -317 154c-93 65 -194 135 -266 135c-57 0 -99 -43 -99 -90c0 -43 35 -78 77 -78s77 35 77 78h20c0 -53 -43 -96 -97 -96zM329 475c0 78 -29 196 -104 196c-34 0 -52 -24 -52 -50
c0 -28 22 -50 49 -50v-18c-39 0 -69 30 -69 68c0 37 27 68 72 68c91 0 124 -129 124 -214h-20z" />
    <glyph glyph-name="fleuron9" horiz-adv-x="865" 
d="M95 380h20c0 -174 142 -317 316 -317s316 143 316 317s-142 317 -316 317v18c184 0 336 -151 336 -335s-152 -335 -336 -335s-336 151 -336 335zM228 380c0 113 93 202 203 202s203 -89 203 -202c0 -110 -93 -202 -203 -202v18c100 0 183 84 183 184
c0 103 -83 184 -183 184s-183 -81 -183 -184h-20zM353 380c0 43 37 77 78 77c40 0 78 -34 78 -77h-20c0 33 -28 59 -58 59c-31 0 -58 -26 -58 -59c0 -31 27 -59 58 -59v-18c-41 0 -78 36 -78 77z" />
    <glyph glyph-name="fleuron0" horiz-adv-x="865" 
d="M231 152c-42 0 -78 35 -78 80c0 38 27 80 93 80c61 0 126 -37 179 -86l28 -30c-16 34 -34 75 -48 109c-58 138 -116 275 -211 275c-49 0 -87 -36 -87 -79s37 -79 83 -79v-18c-56 0 -103 44 -103 97s46 97 107 97c109 0 168 -141 229 -287l3 -9c-2 21 -2 42 2 63
c14 81 55 160 135 160c63 0 87 -50 87 -82c0 -37 -31 -77 -81 -77c-21 0 -42 7 -57 20l14 14c13 -11 28 -16 43 -16c38 0 61 30 61 58c0 25 -18 65 -67 65c-80 0 -119 -106 -119 -192c0 -36 7 -67 15 -88c55 -125 118 -227 216 -227c70 0 89 51 89 84c0 37 -24 61 -54 61
c-44 0 -47 -52 -47 -52l-20 2s5 68 67 68c42 0 74 -32 74 -78c0 -39 -23 -103 -108 -103c-81 0 -140 59 -188 143c-55 79 -154 169 -242 169c-52 0 -73 -32 -73 -63c0 -34 26 -61 58 -61c33 0 62 27 63 61h20c-1 -44 -40 -79 -83 -79zM399 489l-12 14s96 79 96 162
c0 37 -19 73 -63 73c-36 0 -53 -25 -53 -47s16 -50 51 -50v-18c-49 0 -71 38 -71 68s23 65 74 65c57 0 82 -45 82 -90c0 -92 -104 -177 -104 -177z" />
    <glyph glyph-name="mu" unicode="&#xb5;" horiz-adv-x="761" 
d="M37 -185h83v666h-86v18h227v-488c7 -2 19 -5 38 -5c102 0 172 85 172 191v284h-86v18h227v-488c54 5 98 56 98 119h20c0 -76 -56 -137 -126 -137c-74 0 -123 50 -132 118c-7 -22 -18 -43 -33 -60c-34 -39 -82 -63 -140 -63c-15 0 -29 3 -38 5v-178h83v-18h-307v18z" />
    <glyph glyph-name="Aacute.swsh" horiz-adv-x="935" 
d="M24 -94c0 0 32 -24 82 -24c69 0 109 41 133 100l96 232h-58c-134 0 -245 75 -245 210c0 124 95 216 215 216v-18c-108 0 -195 -84 -195 -198c0 -123 101 -192 225 -192h65l215 520h18l320 -734h60v-18h-307v18h91l-84 196h-300l-98 -238c-28 -67 -73 -112 -150 -112
c-60 0 -95 28 -95 28zM363 232h285l-145 340zM538 800l-12 16l152 101l12 -16z" />
    <glyph glyph-name="Adieresis.swsh" horiz-adv-x="935" 
d="M24 -94c0 0 32 -24 82 -24c69 0 109 41 133 100l96 232h-58c-134 0 -245 75 -245 210c0 124 95 216 215 216v-18c-108 0 -195 -84 -195 -198c0 -123 101 -192 225 -192h65l215 520h18l320 -734h60v-18h-307v18h91l-84 196h-300l-98 -238c-28 -67 -73 -112 -150 -112
c-60 0 -95 28 -95 28zM363 232h285l-145 340zM470 804c-29 0 -55 25 -55 54s26 54 55 54s55 -25 55 -54s-26 -54 -55 -54zM665 804c-29 0 -55 25 -55 54s26 54 55 54s55 -25 55 -54s-26 -54 -55 -54z" />
    <glyph glyph-name="Aring.swsh" horiz-adv-x="935" 
d="M24 -94c0 0 32 -24 82 -24c69 0 109 41 133 100l96 232h-58c-134 0 -245 75 -245 210c0 124 95 216 215 216v-18c-108 0 -195 -84 -195 -198c0 -123 101 -192 225 -192h65l215 520h18l320 -734h60v-18h-307v18h91l-84 196h-300l-98 -238c-28 -67 -73 -112 -150 -112
c-60 0 -95 28 -95 28zM363 232h285l-145 340zM567 743c-50 0 -92 41 -92 91s42 91 92 91s92 -41 92 -91s-42 -91 -92 -91zM567 761c40 0 72 33 72 73s-32 73 -72 73s-72 -33 -72 -73s32 -73 72 -73z" />
    <glyph glyph-name="Agrave.swsh" horiz-adv-x="935" 
d="M24 -94c0 0 32 -24 82 -24c69 0 109 41 133 100l96 232h-58c-134 0 -245 75 -245 210c0 124 95 216 215 216v-18c-108 0 -195 -84 -195 -198c0 -123 101 -192 225 -192h65l215 520h18l320 -734h60v-18h-307v18h91l-84 196h-300l-98 -238c-28 -67 -73 -112 -150 -112
c-60 0 -95 28 -95 28zM363 232h285l-145 340zM596 800l-152 101l12 16l152 -101z" />
    <glyph glyph-name="Atilde.swsh" horiz-adv-x="935" 
d="M24 -94c0 0 32 -24 82 -24c69 0 109 41 133 100l96 232h-58c-134 0 -245 75 -245 210c0 124 95 216 215 216v-18c-108 0 -195 -84 -195 -198c0 -123 101 -192 225 -192h65l215 520h18l320 -734h60v-18h-307v18h91l-84 196h-300l-98 -238c-28 -67 -73 -112 -150 -112
c-60 0 -95 28 -95 28zM363 232h285l-145 340zM417 823c0 51 32 92 81 92c36 0 55 -21 76 -44c17 -20 34 -39 63 -39c37 0 61 33 61 74h20c0 -51 -32 -92 -81 -92c-37 0 -57 22 -77 45c-17 19 -34 38 -62 38c-37 0 -61 -33 -61 -74h-20z" />
    <glyph glyph-name="Acircumflex.swsh" horiz-adv-x="935" 
d="M24 -94c0 0 32 -24 82 -24c69 0 109 41 133 100l96 232h-58c-134 0 -245 75 -245 210c0 124 95 216 215 216v-18c-108 0 -195 -84 -195 -198c0 -123 101 -192 225 -192h65l215 520h18l320 -734h60v-18h-307v18h91l-84 196h-300l-98 -238c-28 -67 -73 -112 -150 -112
c-60 0 -95 28 -95 28zM363 232h285l-145 340zM453 801l-12 14l126 105l126 -105l-12 -14l-114 95z" />
    <glyph glyph-name="Aring" unicode="&#xc5;" horiz-adv-x="730" 
d="M-20 0v18h69l299 726c-43 6 -78 44 -78 90c0 50 42 91 92 91s92 -41 92 -91c0 -46 -36 -85 -81 -91l317 -725h60v-18h-307v18h91l-84 196h-299l-81 -196h102v-18h-192zM158 232h285l-144 340zM362 761c40 0 72 33 72 73s-32 73 -72 73s-72 -33 -72 -73s32 -73 72 -73z
" />
    <glyph glyph-name="Amacron.swsh" horiz-adv-x="935" 
d="M24 -94c0 0 32 -24 82 -24c69 0 109 41 133 100l96 232h-58c-134 0 -245 75 -245 210c0 124 95 216 215 216v-18c-108 0 -195 -84 -195 -198c0 -123 101 -192 225 -192h65l215 520h18l320 -734h60v-18h-307v18h91l-84 196h-300l-98 -238c-28 -67 -73 -112 -150 -112
c-60 0 -95 28 -95 28zM363 232h285l-145 340zM462 849v18h210v-18h-210z" />
    <glyph glyph-name="Abreve.swsh" horiz-adv-x="935" 
d="M24 -94c0 0 32 -24 82 -24c69 0 109 41 133 100l96 232h-58c-134 0 -245 75 -245 210c0 124 95 216 215 216v-18c-108 0 -195 -84 -195 -198c0 -123 101 -192 225 -192h65l215 520h18l320 -734h60v-18h-307v18h91l-84 196h-300l-98 -238c-28 -67 -73 -112 -150 -112
c-60 0 -95 28 -95 28zM363 232h285l-145 340zM567 815c-65 0 -117 39 -117 88h20c0 -39 44 -70 97 -70s97 31 97 70h20c0 -49 -52 -88 -117 -88z" />
    <glyph glyph-name="Ccedilla.swsh" horiz-adv-x="787" 
d="M233 40c57 -46 127 -73 209 -73c208 0 272 180 272 180l18 -6s-68 -192 -290 -192h-3l-14 -40c43 -3 76 -22 76 -65c0 -48 -42 -74 -87 -74c-17 0 -35 3 -50 10l8 16c13 -5 27 -8 42 -8c35 0 67 20 67 56c0 34 -38 47 -84 47l20 59c-214 14 -353 206 -353 435
c0 240 151 408 377 408c169 0 283 -96 283 -209c0 -67 -54 -121 -122 -121s-122 54 -122 121h20c0 -57 46 -103 102 -103s102 46 102 103c0 103 -106 191 -263 191c-81 0 -152 -23 -208 -64v-671z" />
    <glyph glyph-name="Cacute.swsh" horiz-adv-x="795" 
d="M241 5c57 -46 127 -74 209 -74c208 0 272 180 272 180l18 -6s-68 -192 -290 -192c-228 0 -378 200 -378 451c0 249 151 429 377 429c169 0 283 -96 283 -209c0 -67 -54 -121 -122 -121s-122 54 -122 121h20c0 -57 46 -103 102 -103s102 46 102 103
c0 103 -106 191 -263 191c-81 0 -152 -25 -208 -68v-702zM417 828l-12 16l152 101l12 -16z" />
    <glyph glyph-name="Ccircumflex.swsh" horiz-adv-x="795" 
d="M241 5c57 -46 127 -74 209 -74c208 0 272 180 272 180l18 -6s-68 -192 -290 -192c-228 0 -378 200 -378 451c0 249 151 429 377 429c169 0 283 -96 283 -209c0 -67 -54 -121 -122 -121s-122 54 -122 121h20c0 -57 46 -103 102 -103s102 46 102 103
c0 103 -106 191 -263 191c-81 0 -152 -25 -208 -68v-702zM332 829l-12 14l126 105l126 -105l-12 -14l-114 95z" />
    <glyph glyph-name="Cdotaccent.swsh" horiz-adv-x="795" 
d="M241 5c57 -46 127 -74 209 -74c208 0 272 180 272 180l18 -6s-68 -192 -290 -192c-228 0 -378 200 -378 451c0 249 151 429 377 429c169 0 283 -96 283 -209c0 -67 -54 -121 -122 -121s-122 54 -122 121h20c0 -57 46 -103 102 -103s102 46 102 103
c0 103 -106 191 -263 191c-81 0 -152 -25 -208 -68v-702zM446 827c-37 0 -70 32 -70 69s33 69 70 69s70 -32 70 -69s-33 -69 -70 -69z" />
    <glyph glyph-name="Ccaron.swsh" horiz-adv-x="795" 
d="M241 5c57 -46 127 -74 209 -74c208 0 272 180 272 180l18 -6s-68 -192 -290 -192c-228 0 -378 200 -378 451c0 249 151 429 377 429c169 0 283 -96 283 -209c0 -67 -54 -121 -122 -121s-122 54 -122 121h20c0 -57 46 -103 102 -103s102 46 102 103
c0 103 -106 191 -263 191c-81 0 -152 -25 -208 -68v-702zM446 822l-126 105l12 14l114 -96l114 96l12 -14z" />
    <glyph glyph-name="Dcaron.swsh" horiz-adv-x="1129" 
d="M230 -82c0 65 50 100 115 100h66v713h-117c-134 0 -244 -72 -244 -210c0 -115 95 -210 210 -210v-18c-125 0 -230 103 -230 228c0 150 118 228 264 228h387c230 0 392 -168 392 -371c0 -210 -162 -378 -392 -378h-250v-67c0 -64 -36 -114 -101 -114
c-56 0 -100 44 -100 99zM557 18h124c87 0 164 25 225 69v575c-61 43 -138 69 -225 69h-124v-713zM250 -82c0 -45 36 -81 80 -81c53 0 81 42 81 96v67h-66c-53 0 -95 -29 -95 -82zM625 794l-126 105l12 14l114 -96l114 96l12 -14z" />
    <glyph glyph-name="Eacute.swsh" horiz-adv-x="1025" 
d="M359 0v18h91v713h-112c-156 0 -283 -84 -283 -244c0 -134 110 -244 244 -244v-18c-146 0 -264 118 -264 262c0 172 137 262 303 262h576c45 0 81 24 81 70c0 39 -32 70 -70 70v18c50 0 90 -39 90 -88c0 -58 -46 -88 -101 -88h-318v-332h241v106h20v-226h-20v102h-241
v-363h359v169h20v-187h-616zM629 800l-12 16l152 101l12 -16z" />
    <glyph glyph-name="Ecircumflex.swsh" horiz-adv-x="1025" 
d="M359 0v18h91v713h-112c-156 0 -283 -84 -283 -244c0 -134 110 -244 244 -244v-18c-146 0 -264 118 -264 262c0 172 137 262 303 262h576c45 0 81 24 81 70c0 39 -32 70 -70 70v18c50 0 90 -39 90 -88c0 -58 -46 -88 -101 -88h-318v-332h241v106h20v-226h-20v102h-241
v-363h359v169h20v-187h-616zM544 801l-12 14l126 105l126 -105l-12 -14l-114 95z" />
    <glyph glyph-name="Edieresis.swsh" horiz-adv-x="1025" 
d="M359 0v18h91v713h-112c-156 0 -283 -84 -283 -244c0 -134 110 -244 244 -244v-18c-146 0 -264 118 -264 262c0 172 137 262 303 262h576c45 0 81 24 81 70c0 39 -32 70 -70 70v18c50 0 90 -39 90 -88c0 -58 -46 -88 -101 -88h-318v-332h241v106h20v-226h-20v102h-241
v-363h359v169h20v-187h-616zM561 804c-29 0 -55 25 -55 54s26 54 55 54s55 -25 55 -54s-26 -54 -55 -54zM756 804c-29 0 -55 25 -55 54s26 54 55 54s55 -25 55 -54s-26 -54 -55 -54z" />
    <glyph glyph-name="Egrave.swsh" horiz-adv-x="1025" 
d="M359 0v18h91v713h-112c-156 0 -283 -84 -283 -244c0 -134 110 -244 244 -244v-18c-146 0 -264 118 -264 262c0 172 137 262 303 262h576c45 0 81 24 81 70c0 39 -32 70 -70 70v18c50 0 90 -39 90 -88c0 -58 -46 -88 -101 -88h-318v-332h241v106h20v-226h-20v102h-241
v-363h359v169h20v-187h-616zM687 800l-152 101l12 16l152 -101z" />
    <glyph glyph-name="Emacron.swsh" horiz-adv-x="1025" 
d="M359 0v18h91v713h-112c-156 0 -283 -84 -283 -244c0 -134 110 -244 244 -244v-18c-146 0 -264 118 -264 262c0 172 137 262 303 262h576c45 0 81 24 81 70c0 39 -32 70 -70 70v18c50 0 90 -39 90 -88c0 -58 -46 -88 -101 -88h-318v-332h241v106h20v-226h-20v102h-241
v-363h359v169h20v-187h-616zM553 849v18h210v-18h-210z" />
    <glyph glyph-name="Ebreve.swsh" horiz-adv-x="1025" 
d="M359 0v18h91v713h-112c-156 0 -283 -84 -283 -244c0 -134 110 -244 244 -244v-18c-146 0 -264 118 -264 262c0 172 137 262 303 262h576c45 0 81 24 81 70c0 39 -32 70 -70 70v18c50 0 90 -39 90 -88c0 -58 -46 -88 -101 -88h-318v-332h241v106h20v-226h-20v102h-241
v-363h359v169h20v-187h-616zM658 815c-65 0 -117 39 -117 88h20c0 -39 44 -70 97 -70s97 31 97 70h20c0 -49 -52 -88 -117 -88z" />
    <glyph glyph-name="Edotaccent.swsh" horiz-adv-x="1025" 
d="M359 0v18h91v713h-112c-156 0 -283 -84 -283 -244c0 -134 110 -244 244 -244v-18c-146 0 -264 118 -264 262c0 172 137 262 303 262h576c45 0 81 24 81 70c0 39 -32 70 -70 70v18c50 0 90 -39 90 -88c0 -58 -46 -88 -101 -88h-318v-332h241v106h20v-226h-20v102h-241
v-363h359v169h20v-187h-616zM658 799c-37 0 -70 32 -70 69s33 69 70 69s70 -32 70 -69s-33 -69 -70 -69z" />
    <glyph glyph-name="Ecaron.swsh" horiz-adv-x="1025" 
d="M359 0v18h91v713h-112c-156 0 -283 -84 -283 -244c0 -134 110 -244 244 -244v-18c-146 0 -264 118 -264 262c0 172 137 262 303 262h576c45 0 81 24 81 70c0 39 -32 70 -70 70v18c50 0 90 -39 90 -88c0 -58 -46 -88 -101 -88h-318v-332h241v106h20v-226h-20v102h-241
v-363h359v169h20v-187h-616zM658 794l-126 105l12 14l114 -96l114 96l12 -14z" />
    <glyph glyph-name="Gcircumflex.swsh" horiz-adv-x="866" 
d="M92 19l20 -4c-20 -110 113 -212 312 -212c65 0 126 13 174 35v209c-23 -4 -80 -13 -140 -13c-254 0 -402 169 -402 374c0 225 173 384 409 384c186 0 310 -98 310 -203c0 -66 -49 -113 -111 -113c-63 0 -112 49 -112 110h20c0 -51 41 -92 92 -92c50 0 91 39 91 95
c0 95 -116 185 -290 185c-93 0 -175 -26 -240 -72v-585c61 -41 139 -65 233 -65c59 0 120 10 140 13v208h-134v18h366v-18h-86v-231c0 -83 -25 -147 -94 -196c-54 -38 -135 -61 -226 -61c-213 0 -354 112 -332 234zM334 829l-12 14l126 105l126 -105l-12 -14l-114 95z" />
    <glyph glyph-name="Gbreve.swsh" horiz-adv-x="866" 
d="M92 19l20 -4c-20 -110 113 -212 312 -212c65 0 126 13 174 35v209c-23 -4 -80 -13 -140 -13c-254 0 -402 169 -402 374c0 225 173 384 409 384c186 0 310 -98 310 -203c0 -66 -49 -113 -111 -113c-63 0 -112 49 -112 110h20c0 -51 41 -92 92 -92c50 0 91 39 91 95
c0 95 -116 185 -290 185c-93 0 -175 -26 -240 -72v-585c61 -41 139 -65 233 -65c59 0 120 10 140 13v208h-134v18h366v-18h-86v-231c0 -83 -25 -147 -94 -196c-54 -38 -135 -61 -226 -61c-213 0 -354 112 -332 234zM448 843c-65 0 -117 39 -117 88h20c0 -39 44 -70 97 -70
s97 31 97 70h20c0 -49 -52 -88 -117 -88z" />
    <glyph glyph-name="Gdotaccent.swsh" horiz-adv-x="866" 
d="M92 19l20 -4c-20 -110 113 -212 312 -212c65 0 126 13 174 35v209c-23 -4 -80 -13 -140 -13c-254 0 -402 169 -402 374c0 225 173 384 409 384c186 0 310 -98 310 -203c0 -66 -49 -113 -111 -113c-63 0 -112 49 -112 110h20c0 -51 41 -92 92 -92c50 0 91 39 91 95
c0 95 -116 185 -290 185c-93 0 -175 -26 -240 -72v-585c61 -41 139 -65 233 -65c59 0 120 10 140 13v208h-134v18h366v-18h-86v-231c0 -83 -25 -147 -94 -196c-54 -38 -135 -61 -226 -61c-213 0 -354 112 -332 234zM448 827c-37 0 -70 32 -70 69s33 69 70 69s70 -32 70 -69
s-33 -69 -70 -69z" />
    <glyph glyph-name="Gcommaaccent.swsh" horiz-adv-x="866" 
d="M92 19l20 -4c-20 -110 113 -212 312 -212c65 0 126 13 174 35v209c-23 -4 -80 -13 -140 -13c-254 0 -402 169 -402 374c0 225 173 384 409 384c186 0 310 -98 310 -203c0 -66 -49 -113 -111 -113c-63 0 -112 49 -112 110h20c0 -51 41 -92 92 -92c50 0 91 39 91 95
c0 95 -116 185 -290 185c-93 0 -175 -26 -240 -72v-585c61 -41 139 -65 233 -65c59 0 120 10 140 13v208h-134v18h366v-18h-86v-231c0 -83 -25 -147 -94 -196c-54 -38 -135 -61 -226 -61c-213 0 -354 112 -332 234zM525 858c0 -28 -22 -55 -59 -55c-46 0 -66 42 -66 76
c0 48 41 91 110 91v-18c-46 0 -76 -22 -86 -51c10 7 22 12 39 12c41 0 62 -27 62 -55z" />
    <glyph glyph-name="Hcircumflex.swsh" horiz-adv-x="1040" 
d="M92 113h20c0 -67 47 -119 114 -122v740h-95c-45 0 -81 -24 -81 -70c0 -39 31 -70 70 -70v-18c-50 0 -90 39 -90 88c0 58 46 88 101 88h284v-18h-43v-345h379v345h-91v18h328v-18h-91v-713h91v-18h-328v18h91v350h-379v-236c0 -88 -47 -159 -140 -159
c-82 0 -140 61 -140 140zM447 801l-12 14l126 105l126 -105l-12 -14l-114 95z" />
    <glyph glyph-name="Iacute.swsh" horiz-adv-x="495" 
d="M121 0v18h91v713h-95c-45 0 -81 -24 -81 -70c0 -39 31 -70 70 -70v-18c-50 0 -90 39 -90 88c0 58 46 88 101 88h284v-18h-43v-713h91v-18h-328zM257 800l-12 16l152 101l12 -16z" />
    <glyph glyph-name="Icircumflex.swsh" horiz-adv-x="495" 
d="M121 0v18h91v713h-95c-45 0 -81 -24 -81 -70c0 -39 31 -70 70 -70v-18c-50 0 -90 39 -90 88c0 58 46 88 101 88h284v-18h-43v-713h91v-18h-328zM172 801l-12 14l126 105l126 -105l-12 -14l-114 95z" />
    <glyph glyph-name="Idieresis.swsh" horiz-adv-x="495" 
d="M121 0v18h91v713h-95c-45 0 -81 -24 -81 -70c0 -39 31 -70 70 -70v-18c-50 0 -90 39 -90 88c0 58 46 88 101 88h284v-18h-43v-713h91v-18h-328zM189 804c-29 0 -55 25 -55 54s26 54 55 54s55 -25 55 -54s-26 -54 -55 -54zM384 804c-29 0 -55 25 -55 54s26 54 55 54
s55 -25 55 -54s-26 -54 -55 -54z" />
    <glyph glyph-name="Igrave.swsh" horiz-adv-x="495" 
d="M121 0v18h91v713h-95c-45 0 -81 -24 -81 -70c0 -39 31 -70 70 -70v-18c-50 0 -90 39 -90 88c0 58 46 88 101 88h284v-18h-43v-713h91v-18h-328zM315 800l-152 101l12 16l152 -101z" />
    <glyph glyph-name="Itilde.swsh" horiz-adv-x="495" 
d="M121 0v18h91v713h-95c-45 0 -81 -24 -81 -70c0 -39 31 -70 70 -70v-18c-50 0 -90 39 -90 88c0 58 46 88 101 88h284v-18h-43v-713h91v-18h-328zM136 823c0 51 32 92 81 92c36 0 55 -21 76 -44c17 -20 34 -39 63 -39c37 0 61 33 61 74h20c0 -51 -32 -92 -81 -92
c-37 0 -57 22 -77 45c-17 19 -34 38 -62 38c-37 0 -61 -33 -61 -74h-20z" />
    <glyph glyph-name="Imacron.swsh" horiz-adv-x="495" 
d="M121 0v18h91v713h-95c-45 0 -81 -24 -81 -70c0 -39 31 -70 70 -70v-18c-50 0 -90 39 -90 88c0 58 46 88 101 88h284v-18h-43v-713h91v-18h-328zM181 849v18h210v-18h-210z" />
    <glyph glyph-name="Ibreve.swsh" horiz-adv-x="495" 
d="M121 0v18h91v713h-95c-45 0 -81 -24 -81 -70c0 -39 31 -70 70 -70v-18c-50 0 -90 39 -90 88c0 58 46 88 101 88h284v-18h-43v-713h91v-18h-328zM286 815c-65 0 -117 39 -117 88h20c0 -39 44 -70 97 -70s97 31 97 70h20c0 -49 -52 -88 -117 -88z" />
    <glyph glyph-name="Idotaccent.swsh" horiz-adv-x="495" 
d="M121 0v18h91v713h-95c-45 0 -81 -24 -81 -70c0 -39 31 -70 70 -70v-18c-50 0 -90 39 -90 88c0 58 46 88 101 88h284v-18h-43v-713h91v-18h-328zM286 799c-37 0 -70 32 -70 69s33 69 70 69s70 -32 70 -69s-33 -69 -70 -69z" />
    <glyph glyph-name="Jcircumflex.swsh" horiz-adv-x="498" 
d="M1 -12h20c0 -78 73 -156 165 -156c15 0 29 2 42 5v894h-119c-45 0 -81 -24 -81 -70c0 -39 31 -70 70 -70v-18c-50 0 -90 39 -90 88c0 58 46 88 101 88h313v-18h-48v-704c0 -118 -64 -213 -188 -213c-104 0 -185 86 -185 174zM125 801l-12 14l126 105l126 -105l-12 -14
l-114 95z" />
    <glyph glyph-name="Kcommaaccent.swsh" horiz-adv-x="1042" 
d="M281 0v18h91v713h-106c-120 0 -219 -66 -219 -184c0 -109 85 -192 188 -192v-18c-114 0 -208 90 -208 211c0 128 106 201 239 201h273v-18h-21v-369l357 369h-103v18h202v-18h-73l-232 -240l279 -463c34 22 56 63 56 112h20c0 -81 -56 -147 -134 -147c-24 0 -48 6 -70 17
c-24 12 -46 32 -64 63l-185 318l-53 -55v-318h91v-18h-328zM584 -103c0 28 22 55 59 55c46 0 66 -42 66 -76c0 -48 -41 -91 -110 -91v18c46 0 76 22 86 51c-10 -7 -22 -12 -39 -12c-41 0 -62 27 -62 55z" />
    <glyph glyph-name="Lacute.swsh" horiz-adv-x="808" 
d="M100 -33c0 48 37 86 87 86c20 0 42 -7 67 -18v696h-144c-45 0 -81 -25 -81 -69c0 -41 31 -71 70 -71v-18c-50 0 -90 38 -90 89c0 56 46 87 101 87h333v-18h-43v-784l5 -3c91 -61 196 -129 283 -129s140 65 140 123h20c0 -66 -61 -141 -160 -141c-94 0 -200 69 -295 133
c-43 29 -83 56 -119 76v-27c0 -54 -29 -98 -87 -98c-49 0 -87 38 -87 86zM120 -33c0 -38 30 -68 67 -68c44 0 67 36 67 80v37c-25 12 -48 19 -67 19c-38 0 -67 -30 -67 -68zM298 800l-12 16l152 101l12 -16z" />
    <glyph glyph-name="Lcaron.swsh" horiz-adv-x="808" 
d="M100 -33c0 48 37 86 87 86c20 0 42 -7 67 -18v696h-144c-45 0 -81 -25 -81 -69c0 -41 31 -71 70 -71v-18c-50 0 -90 38 -90 89c0 56 46 87 101 87h333v-18h-43v-784l5 -3c91 -61 196 -129 283 -129s140 65 140 123h20c0 -66 -61 -141 -160 -141c-94 0 -200 69 -295 133
c-43 29 -83 56 -119 76v-27c0 -54 -29 -98 -87 -98c-49 0 -87 38 -87 86zM120 -33c0 -38 30 -68 67 -68c44 0 67 36 67 80v37c-25 12 -48 19 -67 19c-38 0 -67 -30 -67 -68zM327 794l-126 105l12 14l114 -96l114 96l12 -14z" />
    <glyph glyph-name="Ntilde.swsh" horiz-adv-x="1186" 
d="M359 0v18h91v642l-63 71h-48c-156 0 -284 -83 -284 -244c0 -134 110 -244 244 -244v-18c-146 0 -264 118 -264 262c0 173 136 262 304 262h116c115 0 160 -51 191 -87l385 -436v505h-91v18h202v-18h-91v-718l26 -29c43 -48 67 -70 112 -70c43 0 63 38 63 38l18 -8
s-26 -48 -81 -48c-53 0 -81 23 -128 76l-591 666v-620h91v-18h-202zM598 823c0 51 32 92 81 92c36 0 55 -21 76 -44c17 -20 34 -39 63 -39c37 0 61 33 61 74h20c0 -51 -32 -92 -81 -92c-37 0 -57 22 -77 45c-17 19 -34 38 -62 38c-37 0 -61 -33 -61 -74h-20z" />
    <glyph glyph-name="Nacute.swsh" horiz-adv-x="1186" 
d="M359 0v18h91v642l-63 71h-48c-156 0 -284 -83 -284 -244c0 -134 110 -244 244 -244v-18c-146 0 -264 118 -264 262c0 173 136 262 304 262h116c115 0 160 -51 191 -87l385 -436v505h-91v18h202v-18h-91v-718l26 -29c43 -48 67 -70 112 -70c43 0 63 38 63 38l18 -8
s-26 -48 -81 -48c-53 0 -81 23 -128 76l-591 666v-620h91v-18h-202zM719 800l-12 16l152 101l12 -16z" />
    <glyph glyph-name="Ncommaaccent.swsh" horiz-adv-x="1186" 
d="M359 0v18h91v642l-63 71h-48c-156 0 -284 -83 -284 -244c0 -134 110 -244 244 -244v-18c-146 0 -264 118 -264 262c0 173 136 262 304 262h116c115 0 160 -51 191 -87l385 -436v505h-91v18h202v-18h-91v-718l26 -29c43 -48 67 -70 112 -70c43 0 63 38 63 38l18 -8
s-26 -48 -81 -48c-53 0 -81 23 -128 76l-591 666v-620h91v-18h-202zM693 -103c0 28 22 55 59 55c46 0 66 -42 66 -76c0 -48 -41 -91 -110 -91v18c46 0 76 22 86 51c-10 -7 -22 -12 -39 -12c-41 0 -62 27 -62 55z" />
    <glyph glyph-name="Ncaron.swsh" horiz-adv-x="1186" 
d="M359 0v18h91v642l-63 71h-48c-156 0 -284 -83 -284 -244c0 -134 110 -244 244 -244v-18c-146 0 -264 118 -264 262c0 173 136 262 304 262h116c115 0 160 -51 191 -87l385 -436v505h-91v18h202v-18h-91v-718l26 -29c43 -48 67 -70 112 -70c43 0 63 38 63 38l18 -8
s-26 -48 -81 -48c-53 0 -81 23 -128 76l-591 666v-620h91v-18h-202zM748 794l-126 105l12 14l114 -96l114 96l12 -14z" />
    <glyph glyph-name="Odieresis.swsh" horiz-adv-x="900" 
d="M70 349c0 255 156 444 380 444s380 -189 380 -444c0 -230 -156 -437 -380 -437s-380 207 -380 437zM240 7c57 -48 129 -77 210 -77s152 29 210 77v695c-58 46 -129 73 -210 73s-153 -27 -210 -73v-695zM352 832c-29 0 -55 25 -55 54s26 54 55 54s55 -25 55 -54
s-26 -54 -55 -54zM547 832c-29 0 -55 25 -55 54s26 54 55 54s55 -25 55 -54s-26 -54 -55 -54z" />
    <glyph glyph-name="Otilde.swsh" horiz-adv-x="900" 
d="M70 349c0 255 156 444 380 444s380 -189 380 -444c0 -230 -156 -437 -380 -437s-380 207 -380 437zM240 7c57 -48 129 -77 210 -77s152 29 210 77v695c-58 46 -129 73 -210 73s-153 -27 -210 -73v-695zM299 851c0 51 32 92 81 92c36 0 55 -21 76 -44
c17 -20 34 -39 63 -39c37 0 61 33 61 74h20c0 -51 -32 -92 -81 -92c-37 0 -57 22 -77 45c-17 19 -34 38 -62 38c-37 0 -61 -33 -61 -74h-20z" />
    <glyph glyph-name="Oacute.swsh" horiz-adv-x="900" 
d="M70 349c0 255 156 444 380 444s380 -189 380 -444c0 -230 -156 -437 -380 -437s-380 207 -380 437zM240 7c57 -48 129 -77 210 -77s152 29 210 77v695c-58 46 -129 73 -210 73s-153 -27 -210 -73v-695zM420 828l-12 16l152 101l12 -16z" />
    <glyph glyph-name="Ocircumflex.swsh" horiz-adv-x="900" 
d="M70 349c0 255 156 444 380 444s380 -189 380 -444c0 -230 -156 -437 -380 -437s-380 207 -380 437zM240 7c57 -48 129 -77 210 -77s152 29 210 77v695c-58 46 -129 73 -210 73s-153 -27 -210 -73v-695zM335 829l-12 14l126 105l126 -105l-12 -14l-114 95z" />
    <glyph glyph-name="Ograve.swsh" horiz-adv-x="900" 
d="M70 349c0 255 156 444 380 444s380 -189 380 -444c0 -230 -156 -437 -380 -437s-380 207 -380 437zM240 7c57 -48 129 -77 210 -77s152 29 210 77v695c-58 46 -129 73 -210 73s-153 -27 -210 -73v-695zM478 828l-152 101l12 16l152 -101z" />
    <glyph glyph-name="Omacron.swsh" horiz-adv-x="900" 
d="M70 349c0 255 156 444 380 444s380 -189 380 -444c0 -230 -156 -437 -380 -437s-380 207 -380 437zM240 7c57 -48 129 -77 210 -77s152 29 210 77v695c-58 46 -129 73 -210 73s-153 -27 -210 -73v-695zM344 877v18h210v-18h-210z" />
    <glyph glyph-name="Obreve.swsh" horiz-adv-x="900" 
d="M70 349c0 255 156 444 380 444s380 -189 380 -444c0 -230 -156 -437 -380 -437s-380 207 -380 437zM240 7c57 -48 129 -77 210 -77s152 29 210 77v695c-58 46 -129 73 -210 73s-153 -27 -210 -73v-695zM449 843c-65 0 -117 39 -117 88h20c0 -39 44 -70 97 -70
s97 31 97 70h20c0 -49 -52 -88 -117 -88z" />
    <glyph glyph-name="Ohungarumlaut.swsh" horiz-adv-x="900" 
d="M70 349c0 255 156 444 380 444s380 -189 380 -444c0 -230 -156 -437 -380 -437s-380 207 -380 437zM240 7c57 -48 129 -77 210 -77s152 29 210 77v695c-58 46 -129 73 -210 73s-153 -27 -210 -73v-695zM360 829l-12 14l127 101l12 -14zM465 829l-12 14l127 101l12 -14z
" />
    <glyph glyph-name="Racute.swsh" horiz-adv-x="993" 
d="M281 0v18h91v713h-79c-134 0 -244 -77 -244 -200c0 -115 95 -220 210 -220v-18c-124 0 -230 113 -230 239c0 133 117 217 264 217h371c145 0 241 -89 241 -203c0 -76 -43 -148 -124 -188c80 -34 115 -98 115 -176v-346c4 -1 8 -1 13 -1c83 0 138 64 138 142h20
c0 -88 -65 -160 -159 -160c-62 0 -111 30 -138 77c-17 30 -25 67 -25 106v348h-227v-330h91v-18h-328zM518 366h227v354c-25 7 -52 11 -81 11h-146v-365zM545 800l-12 16l152 101l12 -16z" />
    <glyph glyph-name="Rcommaaccent.swsh" horiz-adv-x="993" 
d="M281 0v18h91v713h-79c-134 0 -244 -77 -244 -200c0 -115 95 -220 210 -220v-18c-124 0 -230 113 -230 239c0 133 117 217 264 217h371c145 0 241 -89 241 -203c0 -76 -43 -148 -124 -188c80 -34 115 -98 115 -176v-346c4 -1 8 -1 13 -1c83 0 138 64 138 142h20
c0 -88 -65 -160 -159 -160c-62 0 -111 30 -138 77c-17 30 -25 67 -25 106v348h-227v-330h91v-18h-328zM518 366h227v354c-25 7 -52 11 -81 11h-146v-365zM501 -103c0 28 22 55 59 55c46 0 66 -42 66 -76c0 -48 -41 -91 -110 -91v18c46 0 76 22 86 51c-10 -7 -22 -12 -39 -12
c-41 0 -62 27 -62 55z" />
    <glyph glyph-name="Rcaron.swsh" horiz-adv-x="993" 
d="M281 0v18h91v713h-79c-134 0 -244 -77 -244 -200c0 -115 95 -220 210 -220v-18c-124 0 -230 113 -230 239c0 133 117 217 264 217h371c145 0 241 -89 241 -203c0 -76 -43 -148 -124 -188c80 -34 115 -98 115 -176v-346c4 -1 8 -1 13 -1c83 0 138 64 138 142h20
c0 -88 -65 -160 -159 -160c-62 0 -111 30 -138 77c-17 30 -25 67 -25 106v348h-227v-330h91v-18h-328zM518 366h227v354c-25 7 -52 11 -81 11h-146v-365zM574 794l-126 105l12 14l114 -96l114 96l12 -14z" />
    <glyph glyph-name="Scaron.swsh" horiz-adv-x="661" 
d="M57 95c0 67 47 122 112 122v-18c-53 0 -92 -47 -92 -104c0 -102 135 -163 262 -163c107 0 191 43 226 118c-3 8 -15 35 -51 64l-340 282c-63 53 -97 103 -97 184c0 139 124 213 270 213c116 0 245 -55 245 -153c0 -48 -38 -84 -83 -84s-83 37 -83 82h20
c0 -35 28 -64 63 -64s63 28 63 66c0 86 -119 135 -225 135c-103 0 -193 -39 -231 -113c0 -4 7 -27 46 -59l343 -285c65 -54 98 -99 98 -186c0 -137 -111 -218 -264 -218c-137 0 -282 67 -282 181zM336 822l-126 105l12 14l114 -96l114 96l12 -14z" />
    <glyph glyph-name="Sacute.swsh" horiz-adv-x="661" 
d="M57 95c0 67 47 122 112 122v-18c-53 0 -92 -47 -92 -104c0 -102 135 -163 262 -163c107 0 191 43 226 118c-3 8 -15 35 -51 64l-340 282c-63 53 -97 103 -97 184c0 139 124 213 270 213c116 0 245 -55 245 -153c0 -48 -38 -84 -83 -84s-83 37 -83 82h20
c0 -35 28 -64 63 -64s63 28 63 66c0 86 -119 135 -225 135c-103 0 -193 -39 -231 -113c0 -4 7 -27 46 -59l343 -285c65 -54 98 -99 98 -186c0 -137 -111 -218 -264 -218c-137 0 -282 67 -282 181zM307 828l-12 16l152 101l12 -16z" />
    <glyph glyph-name="Scircumflex.swsh" horiz-adv-x="661" 
d="M57 95c0 67 47 122 112 122v-18c-53 0 -92 -47 -92 -104c0 -102 135 -163 262 -163c107 0 191 43 226 118c-3 8 -15 35 -51 64l-340 282c-63 53 -97 103 -97 184c0 139 124 213 270 213c116 0 245 -55 245 -153c0 -48 -38 -84 -83 -84s-83 37 -83 82h20
c0 -35 28 -64 63 -64s63 28 63 66c0 86 -119 135 -225 135c-103 0 -193 -39 -231 -113c0 -4 7 -27 46 -59l343 -285c65 -54 98 -99 98 -186c0 -137 -111 -218 -264 -218c-137 0 -282 67 -282 181zM222 829l-12 14l126 105l126 -105l-12 -14l-114 95z" />
    <glyph glyph-name="Tcommaaccent.swsh" horiz-adv-x="887" 
d="M369 0v18h91v713h-203c-117 0 -212 -63 -212 -182c0 -100 82 -182 182 -182v-18c-110 0 -202 90 -202 200c0 131 103 200 232 200h587c45 0 81 24 81 70c0 39 -32 70 -70 70v18c50 0 90 -39 90 -88c0 -58 -46 -88 -101 -88h-238v-713h91v-18h-153l-24 -65
c44 -3 77 -21 77 -65c0 -48 -42 -74 -87 -74c-17 0 -35 3 -50 10l8 16c13 -5 27 -8 42 -8c35 0 67 20 67 56c0 34 -37 47 -83 47l32 83h-157z" />
    <glyph glyph-name="Tcaron.swsh" horiz-adv-x="887" 
d="M369 0v18h91v713h-203c-117 0 -212 -63 -212 -182c0 -100 82 -182 182 -182v-18c-110 0 -202 90 -202 200c0 131 103 200 232 200h587c45 0 81 24 81 70c0 39 -32 70 -70 70v18c50 0 90 -39 90 -88c0 -58 -46 -88 -101 -88h-238v-713h91v-18h-328zM535 794l-126 105
l12 14l114 -96l114 96l12 -14z" />
    <glyph glyph-name="uni021A.swsh" horiz-adv-x="887" 
d="M369 0v18h91v713h-203c-117 0 -212 -63 -212 -182c0 -100 82 -182 182 -182v-18c-110 0 -202 90 -202 200c0 131 103 200 232 200h587c45 0 81 24 81 70c0 39 -32 70 -70 70v18c50 0 90 -39 90 -88c0 -58 -46 -88 -101 -88h-238v-713h91v-18h-328zM473 -103
c0 28 22 55 59 55c46 0 66 -42 66 -76c0 -48 -41 -91 -110 -91v18c46 0 76 22 86 51c-10 -7 -22 -12 -39 -12c-41 0 -62 27 -62 55z" />
    <glyph glyph-name="Udieresis.swsh" horiz-adv-x="1152" 
d="M233 337c-115 0 -208 93 -208 206c0 135 106 206 239 206h349v-18h-48v-684c48 -28 107 -41 170 -41c153 0 280 89 280 282v443h-91v18h202v-18h-91v-443c0 -205 -137 -300 -300 -300c-172 0 -316 95 -316 300v443h-155c-121 0 -219 -65 -219 -188
c0 -103 85 -188 188 -188v-18zM653 804c-29 0 -55 25 -55 54s26 54 55 54s55 -25 55 -54s-26 -54 -55 -54zM848 804c-29 0 -55 25 -55 54s26 54 55 54s55 -25 55 -54s-26 -54 -55 -54z" />
    <glyph glyph-name="Uacute.swsh" horiz-adv-x="1152" 
d="M233 337c-115 0 -208 93 -208 206c0 135 106 206 239 206h349v-18h-48v-684c48 -28 107 -41 170 -41c153 0 280 89 280 282v443h-91v18h202v-18h-91v-443c0 -205 -137 -300 -300 -300c-172 0 -316 95 -316 300v443h-155c-121 0 -219 -65 -219 -188
c0 -103 85 -188 188 -188v-18zM721 800l-12 16l152 101l12 -16z" />
    <glyph glyph-name="Ucircumflex.swsh" horiz-adv-x="1152" 
d="M233 337c-115 0 -208 93 -208 206c0 135 106 206 239 206h349v-18h-48v-684c48 -28 107 -41 170 -41c153 0 280 89 280 282v443h-91v18h202v-18h-91v-443c0 -205 -137 -300 -300 -300c-172 0 -316 95 -316 300v443h-155c-121 0 -219 -65 -219 -188
c0 -103 85 -188 188 -188v-18zM636 801l-12 14l126 105l126 -105l-12 -14l-114 95z" />
    <glyph glyph-name="Ugrave.swsh" horiz-adv-x="1152" 
d="M233 337c-115 0 -208 93 -208 206c0 135 106 206 239 206h349v-18h-48v-684c48 -28 107 -41 170 -41c153 0 280 89 280 282v443h-91v18h202v-18h-91v-443c0 -205 -137 -300 -300 -300c-172 0 -316 95 -316 300v443h-155c-121 0 -219 -65 -219 -188
c0 -103 85 -188 188 -188v-18zM779 800l-152 101l12 16l152 -101z" />
    <glyph glyph-name="Utilde.swsh" horiz-adv-x="1152" 
d="M233 337c-115 0 -208 93 -208 206c0 135 106 206 239 206h349v-18h-48v-684c48 -28 107 -41 170 -41c153 0 280 89 280 282v443h-91v18h202v-18h-91v-443c0 -205 -137 -300 -300 -300c-172 0 -316 95 -316 300v443h-155c-121 0 -219 -65 -219 -188
c0 -103 85 -188 188 -188v-18zM600 823c0 51 32 92 81 92c36 0 55 -21 76 -44c17 -20 34 -39 63 -39c37 0 61 33 61 74h20c0 -51 -32 -92 -81 -92c-37 0 -57 22 -77 45c-17 19 -34 38 -62 38c-37 0 -61 -33 -61 -74h-20z" />
    <glyph glyph-name="Umacron.swsh" horiz-adv-x="1152" 
d="M233 337c-115 0 -208 93 -208 206c0 135 106 206 239 206h349v-18h-48v-684c48 -28 107 -41 170 -41c153 0 280 89 280 282v443h-91v18h202v-18h-91v-443c0 -205 -137 -300 -300 -300c-172 0 -316 95 -316 300v443h-155c-121 0 -219 -65 -219 -188
c0 -103 85 -188 188 -188v-18zM645 849v18h210v-18h-210z" />
    <glyph glyph-name="Ubreve.swsh" horiz-adv-x="1152" 
d="M233 337c-115 0 -208 93 -208 206c0 135 106 206 239 206h349v-18h-48v-684c48 -28 107 -41 170 -41c153 0 280 89 280 282v443h-91v18h202v-18h-91v-443c0 -205 -137 -300 -300 -300c-172 0 -316 95 -316 300v443h-155c-121 0 -219 -65 -219 -188
c0 -103 85 -188 188 -188v-18zM750 815c-65 0 -117 39 -117 88h20c0 -39 44 -70 97 -70s97 31 97 70h20c0 -49 -52 -88 -117 -88z" />
    <glyph glyph-name="Uring.swsh" horiz-adv-x="1152" 
d="M233 337c-115 0 -208 93 -208 206c0 135 106 206 239 206h349v-18h-48v-684c48 -28 107 -41 170 -41c153 0 280 89 280 282v443h-91v18h202v-18h-91v-443c0 -205 -137 -300 -300 -300c-172 0 -316 95 -316 300v443h-155c-121 0 -219 -65 -219 -188
c0 -103 85 -188 188 -188v-18zM750 743c-50 0 -92 41 -92 91s42 91 92 91s92 -41 92 -91s-42 -91 -92 -91zM750 761c40 0 72 33 72 73s-32 73 -72 73s-72 -33 -72 -73s32 -73 72 -73z" />
    <glyph glyph-name="Uhungarumlaut.swsh" horiz-adv-x="1152" 
d="M233 337c-115 0 -208 93 -208 206c0 135 106 206 239 206h349v-18h-48v-684c48 -28 107 -41 170 -41c153 0 280 89 280 282v443h-91v18h202v-18h-91v-443c0 -205 -137 -300 -300 -300c-172 0 -316 95 -316 300v443h-155c-121 0 -219 -65 -219 -188
c0 -103 85 -188 188 -188v-18zM661 801l-12 14l127 101l12 -14zM766 801l-12 14l127 101l12 -14z" />
    <glyph glyph-name="Wcircumflex.swsh" horiz-adv-x="1298" 
d="M259 293c-125 0 -230 103 -230 228c0 149 117 228 264 228h764v-18h-75l-85 -211l147 -345l186 455c25 61 38 85 38 117c0 42 -30 78 -89 81l2 18c71 -5 107 -47 107 -97c0 -33 -10 -51 -40 -125l-257 -630h-20l-156 352l-144 -352h-20l-326 737h-32
c-135 0 -244 -73 -244 -210c0 -115 95 -210 210 -210v-18zM724 175l80 195l-159 361h-158zM887 544l74 187h-154zM689 801l-12 14l126 105l126 -105l-12 -14l-114 95z" />
    <glyph glyph-name="Yacute.swsh" horiz-adv-x="934" 
d="M379 0v18h90v318l-279 436c-85 -20 -149 -96 -149 -186c0 -105 85 -191 190 -191v-18c-116 0 -210 94 -210 210c0 114 91 208 220 208c32 0 67 -6 97 -24c28 -17 53 -46 74 -78l192 -304l158 323c28 57 57 81 96 81c49 0 81 -37 81 -81c0 -47 -37 -84 -84 -84v18
c35 0 64 29 64 65c0 35 -26 64 -61 64s-57 -28 -78 -71l-165 -337v-349h92v-18h-328zM516 800l-12 16l152 101l12 -16z" />
    <glyph glyph-name="Ydieresis.swsh" horiz-adv-x="934" 
d="M379 0v18h90v318l-279 436c-85 -20 -149 -96 -149 -186c0 -105 85 -191 190 -191v-18c-116 0 -210 94 -210 210c0 114 91 208 220 208c32 0 67 -6 97 -24c28 -17 53 -46 74 -78l192 -304l158 323c28 57 57 81 96 81c49 0 81 -37 81 -81c0 -47 -37 -84 -84 -84v18
c35 0 64 29 64 65c0 35 -26 64 -61 64s-57 -28 -78 -71l-165 -337v-349h92v-18h-328zM448 804c-29 0 -55 25 -55 54s26 54 55 54s55 -25 55 -54s-26 -54 -55 -54zM643 804c-29 0 -55 25 -55 54s26 54 55 54s55 -25 55 -54s-26 -54 -55 -54z" />
    <glyph glyph-name="Ycircumflex.swsh" horiz-adv-x="934" 
d="M379 0v18h90v318l-279 436c-85 -20 -149 -96 -149 -186c0 -105 85 -191 190 -191v-18c-116 0 -210 94 -210 210c0 114 91 208 220 208c32 0 67 -6 97 -24c28 -17 53 -46 74 -78l192 -304l158 323c28 57 57 81 96 81c49 0 81 -37 81 -81c0 -47 -37 -84 -84 -84v18
c35 0 64 29 64 65c0 35 -26 64 -61 64s-57 -28 -78 -71l-165 -337v-349h92v-18h-328zM431 801l-12 14l126 105l126 -105l-12 -14l-114 95z" />
    <glyph glyph-name="Zcaron.swsh" horiz-adv-x="875" 
d="M-43 -59c0 60 61 78 138 78c14 0 29 -1 45 -2l427 714h-426v-168h-20v246h20v-60h598v-15l-442 -742l48 -11c81 -18 168 -36 232 -36c177 0 236 127 236 257c0 27 -3 55 -8 82l20 4c5 -27 8 -57 8 -86c0 -140 -65 -275 -256 -275c-70 0 -153 18 -236 36
c-64 14 -129 28 -188 35l-30 -51c-25 -42 -46 -76 -93 -76c-45 0 -73 30 -73 70zM-23 -59c0 -30 20 -52 53 -52c35 0 51 28 75 68l25 43c-12 1 -24 1 -35 1c-65 0 -118 -14 -118 -60zM429 794l-126 105l12 14l114 -96l114 96l12 -14z" />
    <glyph glyph-name="Zacute.swsh" horiz-adv-x="875" 
d="M-43 -59c0 60 61 78 138 78c14 0 29 -1 45 -2l427 714h-426v-168h-20v246h20v-60h598v-15l-442 -742l48 -11c81 -18 168 -36 232 -36c177 0 236 127 236 257c0 27 -3 55 -8 82l20 4c5 -27 8 -57 8 -86c0 -140 -65 -275 -256 -275c-70 0 -153 18 -236 36
c-64 14 -129 28 -188 35l-30 -51c-25 -42 -46 -76 -93 -76c-45 0 -73 30 -73 70zM-23 -59c0 -30 20 -52 53 -52c35 0 51 28 75 68l25 43c-12 1 -24 1 -35 1c-65 0 -118 -14 -118 -60zM400 800l-12 16l152 101l12 -16z" />
    <glyph glyph-name="Zdotaccent.swsh" horiz-adv-x="875" 
d="M-43 -59c0 60 61 78 138 78c14 0 29 -1 45 -2l427 714h-426v-168h-20v246h20v-60h598v-15l-442 -742l48 -11c81 -18 168 -36 232 -36c177 0 236 127 236 257c0 27 -3 55 -8 82l20 4c5 -27 8 -57 8 -86c0 -140 -65 -275 -256 -275c-70 0 -153 18 -236 36
c-64 14 -129 28 -188 35l-30 -51c-25 -42 -46 -76 -93 -76c-45 0 -73 30 -73 70zM-23 -59c0 -30 20 -52 53 -52c35 0 51 28 75 68l25 43c-12 1 -24 1 -35 1c-65 0 -118 -14 -118 -60zM429 799c-37 0 -70 32 -70 69s33 69 70 69s70 -32 70 -69s-33 -69 -70 -69z" />
    <glyph glyph-name="aacute.fina" horiz-adv-x="912" 
d="M28 123c0 85 62 132 149 132h38c62 0 108 27 110 70v160c-17 5 -36 8 -55 8c-44 0 -88 -10 -122 -27c14 -12 44 -39 44 -71c0 -36 -31 -60 -63 -60s-63 28 -63 62c0 62 104 114 204 114c117 0 197 -78 197 -207v-286h208c108 0 196 58 196 169c0 25 -5 49 -14 73l18 6
c11 -28 16 -54 16 -79c0 -123 -96 -187 -216 -187h-222c-60 0 -103 36 -120 88c-5 -22 -15 -42 -32 -58c-27 -26 -67 -42 -120 -42c-104 0 -153 57 -153 135zM178 6h3c93 0 141 58 144 128v6v139c-8 -11 -18 -21 -33 -27c-21 -10 -47 -15 -77 -15h-37v-231zM239 574l-12 16
l152 101l12 -16z" />
    <glyph glyph-name="agrave.fina" horiz-adv-x="912" 
d="M28 123c0 85 62 132 149 132h38c62 0 108 27 110 70v160c-17 5 -36 8 -55 8c-44 0 -88 -10 -122 -27c14 -12 44 -39 44 -71c0 -36 -31 -60 -63 -60s-63 28 -63 62c0 62 104 114 204 114c117 0 197 -78 197 -207v-286h208c108 0 196 58 196 169c0 25 -5 49 -14 73l18 6
c11 -28 16 -54 16 -79c0 -123 -96 -187 -216 -187h-222c-60 0 -103 36 -120 88c-5 -22 -15 -42 -32 -58c-27 -26 -67 -42 -120 -42c-104 0 -153 57 -153 135zM178 6h3c93 0 141 58 144 128v6v139c-8 -11 -18 -21 -33 -27c-21 -10 -47 -15 -77 -15h-37v-231zM297 574
l-152 101l12 16l152 -101z" />
    <glyph glyph-name="acircumflex.fina" horiz-adv-x="912" 
d="M28 123c0 85 62 132 149 132h38c62 0 108 27 110 70v160c-17 5 -36 8 -55 8c-44 0 -88 -10 -122 -27c14 -12 44 -39 44 -71c0 -36 -31 -60 -63 -60s-63 28 -63 62c0 62 104 114 204 114c117 0 197 -78 197 -207v-286h208c108 0 196 58 196 169c0 25 -5 49 -14 73l18 6
c11 -28 16 -54 16 -79c0 -123 -96 -187 -216 -187h-222c-60 0 -103 36 -120 88c-5 -22 -15 -42 -32 -58c-27 -26 -67 -42 -120 -42c-104 0 -153 57 -153 135zM178 6h3c93 0 141 58 144 128v6v139c-8 -11 -18 -21 -33 -27c-21 -10 -47 -15 -77 -15h-37v-231zM154 575l-12 14
l126 105l126 -105l-12 -14l-114 95z" />
    <glyph glyph-name="adieresis.fina" horiz-adv-x="912" 
d="M28 123c0 85 62 132 149 132h38c62 0 108 27 110 70v160c-17 5 -36 8 -55 8c-44 0 -88 -10 -122 -27c14 -12 44 -39 44 -71c0 -36 -31 -60 -63 -60s-63 28 -63 62c0 62 104 114 204 114c117 0 197 -78 197 -207v-286h208c108 0 196 58 196 169c0 25 -5 49 -14 73l18 6
c11 -28 16 -54 16 -79c0 -123 -96 -187 -216 -187h-222c-60 0 -103 36 -120 88c-5 -22 -15 -42 -32 -58c-27 -26 -67 -42 -120 -42c-104 0 -153 57 -153 135zM178 6h3c93 0 141 58 144 128v6v139c-8 -11 -18 -21 -33 -27c-21 -10 -47 -15 -77 -15h-37v-231zM171 578
c-29 0 -55 25 -55 54s26 54 55 54s55 -25 55 -54s-26 -54 -55 -54zM366 578c-29 0 -55 25 -55 54s26 54 55 54s55 -25 55 -54s-26 -54 -55 -54z" />
    <glyph glyph-name="atilde.fina" horiz-adv-x="912" 
d="M28 123c0 85 62 132 149 132h38c62 0 108 27 110 70v160c-17 5 -36 8 -55 8c-44 0 -88 -10 -122 -27c14 -12 44 -39 44 -71c0 -36 -31 -60 -63 -60s-63 28 -63 62c0 62 104 114 204 114c117 0 197 -78 197 -207v-286h208c108 0 196 58 196 169c0 25 -5 49 -14 73l18 6
c11 -28 16 -54 16 -79c0 -123 -96 -187 -216 -187h-222c-60 0 -103 36 -120 88c-5 -22 -15 -42 -32 -58c-27 -26 -67 -42 -120 -42c-104 0 -153 57 -153 135zM178 6h3c93 0 141 58 144 128v6v139c-8 -11 -18 -21 -33 -27c-21 -10 -47 -15 -77 -15h-37v-231zM118 597
c0 51 32 92 81 92c36 0 55 -21 76 -44c17 -20 34 -39 63 -39c37 0 61 33 61 74h20c0 -51 -32 -92 -81 -92c-37 0 -57 22 -77 45c-17 19 -34 38 -62 38c-37 0 -61 -33 -61 -74h-20z" />
    <glyph glyph-name="aring.fina" horiz-adv-x="912" 
d="M28 123c0 85 62 132 149 132h38c62 0 108 27 110 70v160c-17 5 -36 8 -55 8c-44 0 -88 -10 -122 -27c14 -12 44 -39 44 -71c0 -36 -31 -60 -63 -60s-63 28 -63 62c0 62 104 114 204 114c117 0 197 -78 197 -207v-286h208c108 0 196 58 196 169c0 25 -5 49 -14 73l18 6
c11 -28 16 -54 16 -79c0 -123 -96 -187 -216 -187h-222c-60 0 -103 36 -120 88c-5 -22 -15 -42 -32 -58c-27 -26 -67 -42 -120 -42c-104 0 -153 57 -153 135zM178 6h3c93 0 141 58 144 128v6v139c-8 -11 -18 -21 -33 -27c-21 -10 -47 -15 -77 -15h-37v-231zM273 517
c-50 0 -92 41 -92 91s42 91 92 91s92 -41 92 -91s-42 -91 -92 -91zM273 535c40 0 72 33 72 73s-32 73 -72 73s-72 -33 -72 -73s32 -73 72 -73z" />
    <glyph glyph-name="amacron.fina" horiz-adv-x="912" 
d="M28 123c0 85 62 132 149 132h38c62 0 108 27 110 70v160c-17 5 -36 8 -55 8c-44 0 -88 -10 -122 -27c14 -12 44 -39 44 -71c0 -36 -31 -60 -63 -60s-63 28 -63 62c0 62 104 114 204 114c117 0 197 -78 197 -207v-286h208c108 0 196 58 196 169c0 25 -5 49 -14 73l18 6
c11 -28 16 -54 16 -79c0 -123 -96 -187 -216 -187h-222c-60 0 -103 36 -120 88c-5 -22 -15 -42 -32 -58c-27 -26 -67 -42 -120 -42c-104 0 -153 57 -153 135zM178 6h3c93 0 141 58 144 128v6v139c-8 -11 -18 -21 -33 -27c-21 -10 -47 -15 -77 -15h-37v-231zM163 623v18h210
v-18h-210z" />
    <glyph glyph-name="abreve.fina" horiz-adv-x="912" 
d="M28 123c0 85 62 132 149 132h38c62 0 108 27 110 70v160c-17 5 -36 8 -55 8c-44 0 -88 -10 -122 -27c14 -12 44 -39 44 -71c0 -36 -31 -60 -63 -60s-63 28 -63 62c0 62 104 114 204 114c117 0 197 -78 197 -207v-286h208c108 0 196 58 196 169c0 25 -5 49 -14 73l18 6
c11 -28 16 -54 16 -79c0 -123 -96 -187 -216 -187h-222c-60 0 -103 36 -120 88c-5 -22 -15 -42 -32 -58c-27 -26 -67 -42 -120 -42c-104 0 -153 57 -153 135zM178 6h3c93 0 141 58 144 128v6v139c-8 -11 -18 -21 -33 -27c-21 -10 -47 -15 -77 -15h-37v-231zM268 589
c-65 0 -117 39 -117 88h20c0 -39 44 -70 97 -70s97 31 97 70h20c0 -49 -52 -88 -117 -88z" />
    <glyph glyph-name="ccedilla.fina" horiz-adv-x="835" 
d="M183 29c30 -15 65 -23 103 -23c149 0 194 135 194 135l18 -6s-48 -142 -204 -146l-24 -65c44 -3 77 -21 77 -65c0 -48 -42 -74 -87 -74c-17 0 -35 3 -50 10l8 16c13 -5 27 -8 42 -8c35 0 67 20 67 56c0 34 -37 47 -83 47l31 82c-141 6 -240 120 -240 259
c0 150 114 264 258 264c48 0 99 -13 138 -35c27 13 63 23 108 23h261c36 0 65 29 65 66h20c0 -47 -37 -84 -85 -84h-261c-36 0 -67 -7 -90 -17c25 -18 41 -41 41 -67c0 -36 -30 -62 -63 -62s-63 27 -63 62c0 20 16 48 49 69c-35 17 -79 27 -120 27c-40 0 -77 -10 -110 -27
v-437zM384 397c0 -25 20 -44 43 -44s43 18 43 44c0 23 -16 43 -40 59c-31 -18 -46 -41 -46 -59z" />
    <glyph glyph-name="cacute.fina" horiz-adv-x="835" 
d="M183 29c30 -15 65 -23 103 -23c149 0 194 135 194 135l18 -6s-49 -147 -212 -147c-147 0 -251 117 -251 259c0 150 114 264 258 264c48 0 99 -13 138 -35c27 13 63 23 108 23h261c36 0 65 29 65 66h20c0 -47 -37 -84 -85 -84h-261c-36 0 -67 -7 -90 -17
c25 -18 41 -41 41 -67c0 -36 -30 -62 -63 -62s-63 27 -63 62c0 20 16 48 49 69c-35 17 -79 27 -120 27c-40 0 -77 -10 -110 -27v-437zM384 397c0 -25 20 -44 43 -44s43 18 43 44c0 23 -16 43 -40 59c-31 -18 -46 -41 -46 -59zM255 574l-12 16l152 101l12 -16z" />
    <glyph glyph-name="ccircumflex.fina" horiz-adv-x="835" 
d="M183 29c30 -15 65 -23 103 -23c149 0 194 135 194 135l18 -6s-49 -147 -212 -147c-147 0 -251 117 -251 259c0 150 114 264 258 264c48 0 99 -13 138 -35c27 13 63 23 108 23h261c36 0 65 29 65 66h20c0 -47 -37 -84 -85 -84h-261c-36 0 -67 -7 -90 -17
c25 -18 41 -41 41 -67c0 -36 -30 -62 -63 -62s-63 27 -63 62c0 20 16 48 49 69c-35 17 -79 27 -120 27c-40 0 -77 -10 -110 -27v-437zM384 397c0 -25 20 -44 43 -44s43 18 43 44c0 23 -16 43 -40 59c-31 -18 -46 -41 -46 -59zM170 575l-12 14l126 105l126 -105l-12 -14
l-114 95z" />
    <glyph glyph-name="cdotaccent.fina" horiz-adv-x="835" 
d="M183 29c30 -15 65 -23 103 -23c149 0 194 135 194 135l18 -6s-49 -147 -212 -147c-147 0 -251 117 -251 259c0 150 114 264 258 264c48 0 99 -13 138 -35c27 13 63 23 108 23h261c36 0 65 29 65 66h20c0 -47 -37 -84 -85 -84h-261c-36 0 -67 -7 -90 -17
c25 -18 41 -41 41 -67c0 -36 -30 -62 -63 -62s-63 27 -63 62c0 20 16 48 49 69c-35 17 -79 27 -120 27c-40 0 -77 -10 -110 -27v-437zM384 397c0 -25 20 -44 43 -44s43 18 43 44c0 23 -16 43 -40 59c-31 -18 -46 -41 -46 -59zM284 573c-37 0 -70 32 -70 69s33 69 70 69
s70 -32 70 -69s-33 -69 -70 -69z" />
    <glyph glyph-name="ccaron.fina" horiz-adv-x="835" 
d="M183 29c30 -15 65 -23 103 -23c149 0 194 135 194 135l18 -6s-49 -147 -212 -147c-147 0 -251 117 -251 259c0 150 114 264 258 264c48 0 99 -13 138 -35c27 13 63 23 108 23h261c36 0 65 29 65 66h20c0 -47 -37 -84 -85 -84h-261c-36 0 -67 -7 -90 -17
c25 -18 41 -41 41 -67c0 -36 -30 -62 -63 -62s-63 27 -63 62c0 20 16 48 49 69c-35 17 -79 27 -120 27c-40 0 -77 -10 -110 -27v-437zM384 397c0 -25 20 -44 43 -44s43 18 43 44c0 23 -16 43 -40 59c-31 -18 -46 -41 -46 -59zM284 568l-126 105l12 14l114 -96l114 96l12 -14
z" />
    <glyph glyph-name="eacute.fina" horiz-adv-x="936" 
d="M184 30c30 -16 65 -24 103 -24c148 0 196 135 196 135l18 -6s-52 -147 -214 -147c-147 0 -252 118 -252 259c0 147 110 264 248 264c126 0 215 -100 231 -226h314c43 0 72 23 77 67l20 -2c-5 -54 -43 -83 -97 -83h-644v-237zM184 285h172v195c-23 8 -47 13 -73 13
c-36 0 -69 -9 -99 -24v-184zM252 574l-12 16l152 101l12 -16z" />
    <glyph glyph-name="egrave.fina" horiz-adv-x="936" 
d="M184 30c30 -16 65 -24 103 -24c148 0 196 135 196 135l18 -6s-52 -147 -214 -147c-147 0 -252 118 -252 259c0 147 110 264 248 264c126 0 215 -100 231 -226h314c43 0 72 23 77 67l20 -2c-5 -54 -43 -83 -97 -83h-644v-237zM184 285h172v195c-23 8 -47 13 -73 13
c-36 0 -69 -9 -99 -24v-184zM310 574l-152 101l12 16l152 -101z" />
    <glyph glyph-name="ecircumflex.fina" horiz-adv-x="936" 
d="M184 30c30 -16 65 -24 103 -24c148 0 196 135 196 135l18 -6s-52 -147 -214 -147c-147 0 -252 118 -252 259c0 147 110 264 248 264c126 0 215 -100 231 -226h314c43 0 72 23 77 67l20 -2c-5 -54 -43 -83 -97 -83h-644v-237zM184 285h172v195c-23 8 -47 13 -73 13
c-36 0 -69 -9 -99 -24v-184zM167 575l-12 14l126 105l126 -105l-12 -14l-114 95z" />
    <glyph glyph-name="edieresis.fina" horiz-adv-x="936" 
d="M184 30c30 -16 65 -24 103 -24c148 0 196 135 196 135l18 -6s-52 -147 -214 -147c-147 0 -252 118 -252 259c0 147 110 264 248 264c126 0 215 -100 231 -226h314c43 0 72 23 77 67l20 -2c-5 -54 -43 -83 -97 -83h-644v-237zM184 285h172v195c-23 8 -47 13 -73 13
c-36 0 -69 -9 -99 -24v-184zM184 578c-29 0 -55 25 -55 54s26 54 55 54s55 -25 55 -54s-26 -54 -55 -54zM379 578c-29 0 -55 25 -55 54s26 54 55 54s55 -25 55 -54s-26 -54 -55 -54z" />
    </font>
</defs>
</svg>
